this is a clone the true one is kickass2.cc | contact kastatus@protonmail.com

Welcome.To.Marwen.2018.DVDRip.x264.AC3-iCMAL

seeders: 2
leechers: 3
updated:
Added by iCMAL in Other


Welcome.To.Marwen.2018.DVDRip.x264.AC3-iCMAL Size: 1.0 GB (1073741824 Bytes)

Description

 
@@@@@@@@@@@@@@@@@@@@@@@@@@@@@@@@@@@@@@@@@@@@@@@@@@@@@@@@@@@@@@@@@@@@@@@@@@@@@@@@@
@............................................. ........... . . . . .. [email protected] 
@ .....7MM=. .. ..NMMMM.~M...MMMMMMN....IMMMMMM.......MMM. . [email protected] 
@..... MMMM.....MMMMMMMMMM$..MMMMMMM....MMMMMMM......MMMMM......MMMMMMM... [email protected] 
@..... ..,. ..NMMM8 ....MMM....MMMMM~..,MMMMM+.......MMMMM=. . [email protected] 
@.....MMMM8...MMMN.. . ..MM. ..MM.MMM..MM,MMM+..... MMNMMMM. . .MMM.. . . @
@.....MMMM8..?MMM+ . ..... ..MM.MMM,.MM.MMM+.....8MM..NMMN. ..MMM.. . [email protected] 
@..... NMM8. ?MMM7 . ..MM..MMMMM,.MMM+.....MMMMMNMMM... ..MMM.. . .. [email protected] 
@......NMM8...MMMM........7....MM..MMMMM..MMM+....MMMMMMMMMMM. ..MMM.. :MM. [email protected] 
@ .... NMM8...NMMMN. .,MMO...MM..,MMMN..MMM+...,MM,....7MMM:. ..MMM.. [email protected] 
@.....MMMMMM...:M[email protected] 
@....,MMMMMM... ..MMMMMN.....MMMMMM.ZMD.MMMMMMM.MMMMM+..NMMMMMM.MMMMMMMMMMM. . [email protected] 
@..... .. ... .. . ... ..... ........... ........... . . ... . . ... @
@@@@@@@@@@@@@@@@@@@@@@@@@@@@@@@@@@@@@@@@@@@@@@@@@@@@@@@@@@@@@@@@@@@@@@@@@@@@@@@@@

 

Welcome.To.Marwen.2018.DVDRip.x264.AC3-iCMAL  

 

Director: Robert Zemeckis
Writers: Robert Zemeckis, Caroline Thompson 
Stars: Steve Carell, Falk Hentschel, Matt O'Leary 

Storyline
On April 8, 2000, aspiring artist Mark Hogancamp (Steve Carell) became a victim
 of a violent assault when five men beat him up and left him for dead. Followin
g the attack, Mark was left with little to no memory of his previous life due t
o brain damage inflicted by his attackers. In a desperate attempt to regain his
 memories, Hogancamp constructs a miniature World War II village called Marwen 
in his yard to help in his recovery. Unfortunately, Mark's demons come back to 
haunt him when he's asked to testify against the five men that attacked him..

https://www.imdb.com/title/tt3289724/

 

 

 

Quote: 
General
Unique ID : 188206959699577732674076146891669473530 (0x8D9757898F5FB3CEA9EDCA302C7D88FA)
Complete name : C:\Users\Administrator\Downloads\A-İNEN FİLMLER\Welcome.To.Marwen.2018.DVDRip.x264.AC3-iCMAL\Welcome.To.Marwen.2018.DVDRip.x264.AC3-iCMAL.mkv
Format : Matroska
Format version : Version 2
File size : 1.00 GiB
Duration : 1 h 55 min
Overall bit rate : 1 237 kb/s
Encoded date : UTC 2019-04-15 07:14:00
Writing application : mkvmerge v7.0.0 ('Where We Going') 32bit built on Jun 9 2014 15:08:34
Writing library : libebml v1.3.0 + libmatroska v1.4.1

Video
ID : 1
Format : AVC
Format/Info : Advanced Video Codec
Format profile : [email protected] 
Format settings : CABAC / 4 Ref Frames
Format settings, CABAC : Yes
Format settings, ReFrames : 4 frames
Codec ID : V_MPEG4/ISO/AVC
Duration : 1 h 55 min
Bit rate : 782 kb/s
Width : 720 pixels
Height : 392 pixels
Display aspect ratio : 1.85:1
Frame rate mode : Constant
Frame rate : 23.976 (24000/1001) FPS
Color space : YUV
Chroma subsampling : 4:2:0
Bit depth : 8 bits
Scan type : Progressive
Bits/(Pixel*Frame) : 0.116
Stream size : 649 MiB (63%)
Writing library : x264 core 142 r2431 ac76440
Encoding settings : cabac=1 / ref=3 / deblock=1:0:0 / analyse=0x3:0x113 / me=hex / subme=7 / psy=1 / psy_rd=1.00:0.00 / mixed_ref=1 / me_range=16 / chroma_me=1 / trellis=1 / 8x8dct=1 / cqm=0 / deadzone=21,11 / fast_pskip=1 / chroma_qp_offset=-2 / threads=6 / lookahead_threads=1 / sliced_threads=0 / nr=0 / decimate=1 / interlaced=0 / bluray_compat=0 / constrained_intra=0 / bframes=3 / b_pyramid=2 / b_adapt=1 / b_bias=0 / direct=1 / weightb=1 / open_gop=0 / weightp=2 / keyint=240 / keyint_min=23 / scenecut=40 / intra_refresh=0 / rc_lookahead=40 / rc=2pass / mbtree=1 / bitrate=782 / ratetol=1.0 / qcomp=0.60 / qpmin=0 / qpmax=69 / qpstep=4 / cplxblur=20.0 / qblur=0.5 / ip_ratio=1.40 / aq=1:1.00
Default : Yes
Forced : No

Audio
ID : 2
Format : AC-3
Format/Info : Audio Coding 3
Commercial name : Dolby Digital
Codec ID : A_AC3
Duration : 1 h 55 min
Bit rate mode : Constant
Bit rate : 448 kb/s
Channel(s) : 6 channels
Channel layout : L R C LFE Ls Rs
Sampling rate : 48.0 kHz
Frame rate : 31.250 FPS (1536 SPF)
Bit depth : 16 bits
Compression mode : Lossy
Stream size : 372 MiB (36%)
Language : English
Service kind : Complete Main
Default : Yes
Forced : No

Text #1
ID : 3
Format : VobSub
Muxing mode : zlib
Codec ID : S_VOBSUB
Codec ID/Info : Picture based subtitle format used on DVDs
Duration : 1 h 46 min
Bit rate : 1 971 b/s
Count of elements : 1666
Stream size : 1.50 MiB (0%)
Language : English
Default : No
Forced : No

Text #2
ID : 4
Format : VobSub
Muxing mode : zlib
Codec ID : S_VOBSUB
Codec ID/Info : Picture based subtitle format used on DVDs
Duration : 1 h 54 min
Bit rate : 1 467 b/s
Count of elements : 1314
Stream size : 1.20 MiB (0%)
Language : Spanish
Default : No
Forced : No

Text #3
ID : 5
Format : VobSub
Muxing mode : zlib
Codec ID : S_VOBSUB
Codec ID/Info : Picture based subtitle format used on DVDs
Duration : 1 h 54 min
Bit rate : 1 556 b/s
Count of elements : 1359
Stream size : 1.28 MiB (0%)
Language : French
Default : No
Forced : No

Menu
00:00:00.000 : en:Chapter 01
00:04:17.000 : en:Chapter 02
00:10:56.834 : en:Chapter 03
00:16:41.867 : en:Chapter 04
00:22:25.668 : en:Chapter 05
00:27:33.168 : en:Chapter 06
00:35:08.668 : en:Chapter 07
00:41:06.835 : en:Chapter 08
00:45:56.502 : en:Chapter 09
00:51:32.535 : en:Chapter 10
01:00:32.336 : en:Chapter 11
01:03:27.170 : en:Chapter 12
01:08:03.170 : en:Chapter 13
01:13:34.337 : en:Chapter 14
01:17:10.171 : en:Chapter 15
01:25:08.505 : en:Chapter 16
01:30:43.039 : en:Chapter 17
01:39:28.840 : en:Chapter 18
01:43:25.174 : en:Chapter 19
01:48:43.708 : en:Chapter 20
01:55:49.676 : en:Chapter 21
 

 

@@@@@@@@@@@@@@@@@@@@@@@@@@@@@@@@@@@@@@@@@@@@@@@@@@@@@@@@@@@@@@@@@@@@@@@@@@@@@@@@@
@............................................. ........... . . . . .. [email protected] 
@ .....7MM=. .. ..NMMMM.~M...MMMMMMN....IMMMMMM.......MMM. . [email protected] 
@..... MMMM.....MMMMMMMMMM$..MMMMMMM....MMMMMMM......MMMMM......MMMMMMM... [email protected] 
@..... ..,. ..NMMM8 ....MMM....MMMMM~..,MMMMM+.......MMMMM=. . [email protected] 
@.....MMMM8...MMMN.. . ..MM. ..MM.MMM..MM,MMM+..... MMNMMMM. . .MMM.. . . @
@.....MMMM8..?MMM+ . ..... ..MM.MMM,.MM.MMM+.....8MM..NMMN. ..MMM.. . [email protected] 
@..... NMM8. ?MMM7 . ..MM..MMMMM,.MMM+.....MMMMMNMMM... ..MMM.. . .. [email protected] 
@......NMM8...MMMM........7....MM..MMMMM..MMM+....MMMMMMMMMMM. ..MMM.. :MM. [email protected] 
@ .... NMM8...NMMMN. .,MMO...MM..,MMMN..MMM+...,MM,....7MMM:. ..MMM.. [email protected] 
@.....MMMMMM...:M[email protected] 
@....,MMMMMM... ..MMMMMN.....MMMMMM.ZMD.MMMMMMM.MMMMM+..NMMMMMM.MMMMMMMMMMM. . [email protected] 
@..... .. ... .. . ... ..... ........... ........... . . ... . . ... @
@@@@@@@@@@@@@@@@@@@@@@@@@@@@@@@@@@@@@@@@@@@@@@@@@@@@@@@@@@@@@@@@@@@@@@@@@@@@@@@@@
iCMAL is a Turkish Release Group Since 2014

iCMAL was founded in 2014. Encoding who lives in Turkey. We use the simplest
 features that Megui has given us. We do DVD and BD-R coding. Our aim is to
 offer more languages with many languages. We love to share. We do not discr
iminate between religion and race. We want to reach more DVD and BD-R source.
 Please share with us and become a member of our group.

[*] UNLIMITED FILE TRANSFER
[*] 20 GBit SPEED INTERNET
[*] |x264|&|DVD|&|XviD|&|BDRip|
[*] CONTACT U.S.: [email protected] 

@@@@@@@@@@@@@@@@@@@@@@@@@@@@@@@@@@@@@@@@@@@@@@@@@@@@@@@@@@@@@@@@@@@@@@@@@@@@@@@@@
@............................................. ........... . . . . .. [email protected] 
@ .....7MM=. .. ..NMMMM.~M...MMMMMMN....IMMMMMM.......MMM. . [email protected] 
@..... MMMM.....MMMMMMMMMM$..MMMMMMM....MMMMMMM......MMMMM......MMMMMMM... [email protected] 
@..... ..,. ..NMMM8 ....MMM....MMMMM~..,MMMMM+.......MMMMM=. . [email protected] 
@.....MMMM8...MMMN.. . ..MM. ..MM.MMM..MM,MMM+..... MMNMMMM. . .MMM.. . . @
@.....MMMM8..?MMM+ . ..... ..MM.MMM,.MM.MMM+.....8MM..NMMN. ..MMM.. . [email protected] 
@..... NMM8. ?MMM7 . ..MM..MMMMM,.MMM+.....MMMMMNMMM... ..MMM.. . .. [email protected] 
@......NMM8...MMMM........7....MM..MMMMM..MMM+....MMMMMMMMMMM. ..MMM.. :MM. [email protected] 
@ .... NMM8...NMMMN. .,MMO...MM..,MMMN..MMM+...,MM,....7MMM:. ..MMM.. [email protected] 
@.....MMMMMM...:M[email protected] 
@....,MMMMMM... ..MMMMMN.....MMMMMM.ZMD.MMMMMMM.MMMMM+..NMMMMMM.MMMMMMMMMMM. . [email protected] 
@..... .. ... .. . ... ..... ........... ........... . . ... . . ... @
@@@@@@@@@@@@@@@@@@@@@@@@@@@@@@@@@@@@@@@@@@@@@@@@@@@@@@@@@@@@@@@@@@@@@@@@@@@@@@@@@

Sharing Widget


Download torrent
Size: 1.0 GB
seeders:2
leechers:3
Welcome.To.Marwen.2018.DVDRip.x264.AC3-iCMAL - (1073741824 Bytes)



To share this torrent use the code below and insert it into comments, status messages, forum posts or your signature.

Torrent: Welcome.To.Marwen.2018.DVDRip.x264.AC3-iCMAL

Trackers

tracker name
UDP://TRACKER.LEECHERS-PARADISE.ORG:6969/ANNOUNCE
UDP://TRACKER.COPPERSURFER.TK:6969/ANNOUNCE
UDP://TRACKER.ZER0DAY.TO:1337/ANNOUNCE
UDP://EDDIE4.NL:6969/ANNOUNCE
udp://tracker.coppersurfer.tk:6969/announce
udp://tracker.leechers-paradise.org:6969/announce
udp://tracker.pirateparty.gr:6969/announce
udp://tracker.internetwarriors.net:1337/announce
udp://tracker.zer0day.to:1337/announce
udp://tracker.leechers-paradise.org:6969/announce
udp://coppersurfer.tk:6969/announce
µTorrent compatible trackers list

Locations

name
KickassTorrents
Torrent hash: 72260516B6D1454E8410AF593A13DFEEAD8E62DA
kickass, kickass proxy, kickass movies, kickass torrentz2 download, utorrent kickass movies, kickass torrents2, best torrenting sites, kickass search engine, kickass torrenz movies, kickass movie download fast and free, kickass proxy 2018, kickass top