this is a clone the true one is kickass2.cc | contact kastatus@protonmail.com

Total Dhamaal 2019 Hindi Movies PDVDRip x264 Clean Audio New Sour...

seeders: 548
leechers: 315
updated:
Added by nehalpuja in Other


Description

Total Dhamaal 2019 Hindi Movies PDVDRip x264 Clean Audio New Source with Sample ☻rDX☻
===============================================================================================

SCREEN SHOTS:  

 

or

https://iphonehosting.eu/19/bankloan/owner/1.html  

File size : 709 MiB
Duration : 2 h 3 min
Overall bit rate : 800 kb/s
Movie name : Total Dhamaal 2019 Hindi Movies PDVDRip x264 Clean Audio New Source ☻rDX☻

Video
ID : 2
Format : AVC
Format/Info : Advanced Video Codec
Format profile : [email protected] 
Format settings, CABAC : Yes
Format settings, ReFrames : 2 frames
Format settings, GOP : M=1, N=12
Codec ID : V_MPEG4/ISO/AVC
Duration : 2 h 3 min
Bit rate : 720 kb/s
Width : 700 pixels
Height : 280 pixels
Display aspect ratio : 2.500
Frame rate mode : Constant
Frame rate : 25.000 FPS
Color space : YUV
Chroma subsampling : 4:2:0
Bit depth : 8 bits
Scan type : Progressive
Bits/(Pixel*Frame) : 0.147
Stream size : 638 MiB (90%)
Title : ☻rDX☻
Default : Yes
Forced : No

Audio
ID : 1
Format : AC-3
Format/Info : Audio Coding 3
Mode extension : CM (complete main)
Format settings, Endianness : Big
Codec ID : A_AC3
Duration : 2 h 3 min
Bit rate mode : Constant
Bit rate : 64.0 kb/s
Channel(s) : 2 channels
Channel positions : Front: L R
Sampling rate : 44.1 kHz
Frame rate : 28.711 FPS (1536 spf)
Bit depth : 16 bits
Compression mode : Lossy
Stream size : 56.7 MiB (8%)
Title : ☻rDX☻
Default : Yes
Forced : No

https://www.imdb.com/title/tt7639372


Sharing Widget


Download torrent
Size: 712.8 MB
seeders:548
leechers:315
Total Dhamaal 2019 Hindi Movies PDVDRip x264 Clean Audio New Sour... - (747424972 Bytes)



To share this torrent use the code below and insert it into comments, status messages, forum posts or your signature.

Torrent: Total Dhamaal 2019 Hindi Movies PDVDRip x264 Clean Audio New Sour...

Trackers

tracker name
udp://tracker.coppersurfer.tk:6969/announce
udp://tracker.leechers-paradise.org:6969/announce
udp://tracker.pirateparty.gr:6969/announce
udp://eddie4.nl:6969/announce
udp://tracker.zer0day.to:1337/announce
udp://9.rarbg.me:2730/announce
udp://9.rarbg.to:2710/announce
udp://public.popcorn-tracker.org:6969/announce
udp://p4p.arenabg.ch:1337/announce
udp://tracker.vanitycore.co:6969/announce
udp://ipv4.tracker.harry.lu:80/announce
udp://tracker.opentrackr.org:1337/announce
udp://p4p.arenabg.com:1337/announce
udp://shadowshq.yi.org:6969/announce
udp://tracker.zer0day.to:1337/announce
udp://tracker.leechers-paradise.org:6969/announce
udp://coppersurfer.tk:6969/announce
µTorrent compatible trackers list

Locations

name
KickassTorrents
Torrent hash: 5C7F5419D40DDE87D39F604E7A09FE49C38586A1
kickass, kickass proxy, kickass movies, kickass torrentz2 download, utorrent kickass movies, kickass torrents2, best torrenting sites, kickass search engine, kickass torrenz movies, kickass movie download fast and free, kickass proxy 2018, kickass top