this is a clone the true one is kickass2.cc | contact kastatus@protonmail.com

Total Dhamaal 2019 Hindi 720p PRE-DVDRip x264 [MW]

seeders: 319
leechers: 115
updated:
Added by moviezworldz in Other


Total Dhamaal 2019 Hindi 720p PRE-DVDRip x264 [MW] Size: 1.2 GB (1288490188 Bytes)

Description

 
 

 
General
Format : Matroska
Format version : Version 4
File size : 1.17 GiB
Duration : 2 h 3 min
Overall bit rate : 1 346 kb/s

Video
ID : 1
Format : AVC
Format/Info : Advanced Video Codec
Format profile : [email protected] 
Format settings : CABAC / 4 Ref Frames
Format settings, CABAC : Yes
Format settings, RefFrames : 4 frames
Codec ID : V_MPEG4/ISO/AVC
Duration : 2 h 3 min
Bit rate : 1 200 kb/s
Width : 1 280 pixels
Height : 576 pixels
Display aspect ratio : 2.222
Frame rate mode : Constant
Frame rate : 25.000 FPS
Color space : YUV
Chroma subsampling : 4:2:0
Bit depth : 8 bits
Scan type : Progressive
Bits/(Pixel*Frame) : 0.065
Stream size : 1.05 GiB (90%)
Writing library : x264 core 157 r2935 545de2f

Audio
ID : 2
Format : AAC LC
Codec ID : A_AAC-2
Duration : 2 h 3 min
Bit rate : 129 kb/s
Channel(s) : 2 channels
Channel layout : L R
Sampling rate : 48.0 kHz
Frame rate : 46.875 FPS (1024 SPF)
Compression mode : Lossy
Stream size : 114 MiB (10%)
Language : Hindi
Default : Yes
Forced : No
  

Click To View Image

 
 
 
 
 
 

Sharing Widget


Download torrent
Size: 1.2 GB
seeders:319
leechers:115
Total Dhamaal 2019 Hindi 720p PRE-DVDRip x264 [MW] - (1288490188 Bytes)



To share this torrent use the code below and insert it into comments, status messages, forum posts or your signature.

Torrent: Total Dhamaal 2019 Hindi 720p PRE-DVDRip x264 [MW]

Trackers

tracker name
udp://tracker.coppersurfer.tk:6969/announce
udp://9.rarbg.to:2790/announce
udp://9.rarbg.me:2770/announce
udp://tracker.opentrackr.org:1337/announce
udp://eddie4.nl:6969/announce
udp://shadowshq.yi.org:6969/announce
udp://tracker.leechers-paradise.org:6969/announce
udp://tracker.tiny-vps.com:6969/announce
udp://inferno.demonoid.pw:3391/announce
udp://tracker.pirateparty.gr:6969/announce
udp://open.stealth.si:80/announce
udp://tracker.torrent.eu.org:451/announce
udp://tracker.open-internet.nl:6969/announce
udp://coppersurfer.tk:6969/announce
udp://tracker.zer0day.to:1337/announce
udp://tracker.leechers-paradise.org:6969/announce
udp://coppersurfer.tk:6969/announce
ĀµTorrent compatible trackers list

Locations

name
KickassTorrents
Torrent hash: 205CB8785F060AA06F362F65A4CFC40C70A18E6B
kickass, kickass proxy, kickass movies, kickass torrentz2 download, utorrent kickass movies, kickass torrents2, best torrenting sites, kickass search engine, kickass torrenz movies, kickass movie download fast and free, kickass proxy 2018, kickass top