this is a clone the true one is kickass2.cc | contact kastatus@protonmail.com

The Dictator (2012) UNRATED 1080p BluRay x264 Dual Audio [Hindi D...

seeders: 7
leechers: 35
updated:
Added by TheFighter in Other


Description

 

 

 

 

The Dictator (2012) UNRATED 1080p BluRay x264 Dual Audio [Hindi DD5.1 - English DD5.1] - ESUB ~ Ranvijay [Team SSX]  

Thanks To Hammer For Hindi Audio & Peter Parker For Sync  

 

Buy RDP Online  

General
Format : Matroska
Format version : Version 4 / Version 2
File size : 3.82 GiB
Duration : 1 h 38 min
Overall bit rate : 5 541 kb/s
Movie name : The Dictator (2012) UNRATED 1080p BluRay x264 Dual Audio [Hindi DD5.1 - English DD5.1] - ESUB ~ Ranvijay

Video
ID  : 1
Format : AVC
Format/Info : Advanced Video Codec
Duration : 1 h 38 min
Bit rate : 4 500 kb/s
Width : 1 920 pixels
Height : 816 pixels
Display aspect ratio : 2.35:1
Frame rate mode : Constant
Frame rate : 23.976 (24000/1001) FPS
Color space : YUV
Chroma subsampling : 4:2:0
Bit depth : 8 bits
Scan type : Progressive
Bits/(Pixel*Frame) : 0.120
Stream size : 3.11 GiB (81%)
Title : ~Ranvijay~

Audio #1
ID : 2
Format : AC-3
Format/Info : Audio Coding 3
Codec ID : A_AC3
Duration : 1 h 38 min
Bit rate mode : Constant
Bit rate : 640 kb/s
Channel(s) : 6 channels
Channel positions : Front: L C R, Side: L R, LFE
Sampling rate : 48.0 kHz
Frame rate : 31.250 FPS (1536 SPF)
Bit depth : 16 bits
Compression mode : Lossy
Stream size : 452 MiB (12%)
Title : ~Ranvijay~
Language : Hindi
Service kind : Complete Main
Default : Yes
Forced : Yes

Audio #2
ID : 3
Format : AC-3
Format/Info : Audio Coding 3
Codec ID : A_AC3
Duration : 1 h 38 min
Bit rate mode : Constant
Bit rate : 384 kb/s
Channel(s) : 6 channels
Channel positions : Front: L C R, Side: L R, LFE
Sampling rate : 48.0 kHz
Frame rate : 31.250 FPS (1536 SPF)
Bit depth : 16 bits
Compression mode : Lossy
Stream size : 271 MiB (7%)
Title : ~Ranvijay~
Language : English
Service kind : Complete Main
Default : No
Forced : No

Text
ID : 4
Format : PGS
Muxing mode : zlib
Codec ID : S_HDMV/PGS
Codec ID/Info : Picture based subtitle format used on BDs/HD-DVDs
Duration : 1 h 37 min
Bit rate : 49.2 kb/s
Count of elements : 3208
Stream size : 34.5 MiB (1%)
Title : ~Ranvijay~
Language : English
Default : Yes
Forced : Yes

Menu
00:00:00.000 : en:Chapter 1
00:09:41.038 : en:Chapter 2
00:14:36.875 : en:Chapter 3
00:22:35.770 : en:Chapter 4
00:27:06.207 : en:Chapter 5
00:32:42.376 : en:Chapter 6
00:38:42.278 : en:Chapter 7
00:45:23.553 : en:Chapter 8
00:49:48.276 : en:Chapter 9
01:01:58.464 : en:Chapter 10
01:09:39.758 : en:Chapter 11
01:16:51.731 : en:Chapter 12
01:21:51.906 : en:Chapter 13
01:28:48.656 : en:Chapter 14  

 
 
 
 
 
 
 
 
 
 

 
Don't walk as you are king, walk as you don't care who the king is....!!  


Sharing Widget


Download torrent
Size: 3.8 GB
seeders:7
leechers:35
The Dictator (2012) UNRATED 1080p BluRay x264 Dual Audio [Hindi D... - (4080218931 Bytes)



To share this torrent use the code below and insert it into comments, status messages, forum posts or your signature.

Torrent: The Dictator (2012) UNRATED 1080p BluRay x264 Dual Audio [Hindi D...

Trackers

tracker name
udp://tracker.pirateparty.gr:6969/announce
udp://tracker.tiny-vps.com:6969/announce
udp://open.stealth.si:80/announce
udp://tracker.opentrackr.org:1337/announce
udp://tracker.internetwarriors.net:1337/announce
udp://9.rarbg.to:2710/announce
udp://tracker1.itzmx.com:8080/announce
udp://9.rarbg.me:2740/announce
udp://thetracker.org:80/announce
udp://tracker.coppersurfer.tk:6969/announce
https://tracker.fastdownload.xyz:443/announce
udp://torrentclub.tech:6969/announce
udp://open.demonii.si:1337/announce
https://seeders-paradise.org:443/announce
udp://tracker.zer0day.to:1337/announce
udp://tracker.leechers-paradise.org:6969/announce
udp://coppersurfer.tk:6969/announce
ĀµTorrent compatible trackers list

Locations

name
KickassTorrents
Torrent hash: F76EC8E969E25A7887BC8E3893293E9FE74C8E25
kickass, kickass proxy, kickass movies, kickass torrentz2 download, utorrent kickass movies, kickass torrents2, best torrenting sites, kickass search engine, kickass torrenz movies, kickass movie download fast and free, kickass proxy 2018, kickass top