this is a clone the true one is kickass2.cc | contact kastatus@protonmail.com

The Big Bang Theory S12E09 The Citation Negation 1080p 5.1 - 2.0 ...

seeders: 20
leechers: 4
updated:
Added by PhunPsyz in Other


Description

www.imdb.com/title/tt6674698/?ref_=ttep_ep9 

Sheldon and Amy are devastated after learning from a Russian paper that Super Asymmetry has already been discovered and disproved. Bernadette wants to beat Howard in a popular video game.

Source: Amzn

 
 
 
 
 

Format : MPEG-4
Format profile : Base Media / Version 2
Codec ID : mp42 (isom/iso2/avc1/mp41)
File size : 340 MiB
Duration : 20 min 22 s
Overall bit rate mode : Variable
Overall bit rate : 2 331 kb/s

Video
ID : 1
Format : AVC
Format/Info : Advanced Video Codec
Format profile : [email protected] 
Format settings : CABAC / 1 Ref Frames
Format settings, CABAC : Yes
Format settings, ReFrames : 1 frame
Codec ID : avc1
Codec ID/Info : Advanced Video Coding
Duration : 20 min 22 s
Bit rate : 1 846 kb/s
Width : 1 920 pixels
Height : 1 080 pixels
Display aspect ratio : 16:9
Frame rate mode : Constant
Frame rate : 24.000 FPS
Color space : YUV
Chroma subsampling : 4:2:0
Bit depth  : 8 bits
Scan type : Progressive
Bits/(Pixel*Frame) : 0.037
Stream size : 269 MiB (79%)
Writing library : x264 core 155 r2901 7d0ff22

Audio #1
ID : 2
Format : AC-3
Format/Info : Audio Coding 3
Commercial name : Dolby Digital
Codec ID : ac-3
Duration : 20 min 22 s
Bit rate mode : Constant
Bit rate : 320 kb/s
Channel(s) : 6 channels
Channel layout : L R C LFE Ls Rs
Sampling rate : 48.0 kHz
Frame rate : 31.250 FPS (1536 SPF)
Bit depth : 16 bits
Compression mode : Lossy
Stream size : 46.6 MiB (14%)
Title : Surround / Surround
Language : English

Audio #2
ID : 3
Format : AAC LC
Format/Info : Advanced Audio Codec Low Complexity
Codec ID : mp4a-40-2
Duration : 20 min 22 s
Bit rate mode : Variable
Bit rate : 159 kb/s
Channel(s) : 2 channels
Channel layout : L R
Sampling rate : 48.0 kHz
Frame rate : 46.875 FPS (1024 SPF)
Compression mode : Lossy
Stream size : 23.2 MiB (7%)
Title : Stereo / Stereo
Language : English

Text
Language : English
Default : Yes
Forced : No

Sharing Widget


Download torrent
Size: 339.8 MB
seeders:20
leechers:4
The Big Bang Theory S12E09 The Citation Negation 1080p 5.1 - 2.0 ... - (356306124 Bytes)



To share this torrent use the code below and insert it into comments, status messages, forum posts or your signature.

Torrent: The Big Bang Theory S12E09 The Citation Negation 1080p 5.1 - 2.0 ...

Trackers

tracker name
udp://tracker.opentrackr.org:1337/announce
udp://public.popcorn-tracker.org:6969/announce
udp://tracker.coppersurfer.tk:6969/announce
udp://tracker.pirateparty.gr:6969/announce
udp://tracker.internetwarriors.net:1337/announce
udp://tracker.torrent.eu.org:451/announce
udp://tracker.tiny-vps.com:6969/announce
udp://explodie.org:6969/announce
http://explodie.org:6969/announce
http://open.acgtracker.com:1096/announce
udp://182.176.139.129:6969/announce
udp://tracker.justseed.it:1337/announce
udp://tracker.zer0day.to:1337/announce
udp://tracker.leechers-paradise.org:6969/announce
udp://coppersurfer.tk:6969/announce
ĀµTorrent compatible trackers list

Locations

name
KickassTorrents
Torrent hash: A8765E777D72C5A59F4249BD078CB5C53B0EB797
kickass, kickass proxy, kickass movies, kickass torrentz2 download, utorrent kickass movies, kickass torrents2, best torrenting sites, kickass search engine, kickass torrenz movies, kickass movie download fast and free, kickass proxy 2018, kickass top