this is a clone the true one is kickass2.cc | contact kastatus@protonmail.com

Star.Trek.Discovery.S02E09.WEB-DL.XviD.B4ND1T69

seeders: 14
leechers: 2
updated:
Added by B4ND1T69 in Other
Torrent reliable.


Star.Trek.Discovery.S02E09.WEB-DL.XviD.B4ND1T69 Size: 464.6 MB (487168409 Bytes)

Description

Star.Trek.Discovery.S02E09.WEB-DL.XviD.B4ND1T69  

 

 Creators: Alex Kurtzman, Bryan Fuller
Stars: Sonequa Martin-Green, Doug Jones, Anthony Rapp

Plot/Story:
Project Daedalus
The Discovery crew infiltrates Section 31's headquarters and suspicions arise that the crew may have a traitor in their midst. Meanwhile, Burnham tries to help Spock, but her efforts don't go as planned.

General
Complete name : Star.Trek.Discovery.S02E09.WEB-DL.XviD.B4ND1T69.avi
Format : AVI
Format/Info : Audio Video Interleave
File size : 465 MiB
Duration : 53 min 23 s
Overall bit rate : 1 217 kb/s
Subtitles : Yes...Included(HI)

Video
ID : 0
Format : MPEG-4 Visual
Format profile : Advanced [email protected] 
Format settings, BVOP : 2
Format settings, QPel : No
Format settings, GMC : No warppoints
Format settings, Matrix : Default (H.263)
Codec ID : XVID
Codec ID/Hint : XviD
Duration : 53 min 23 s
Bit rate : 1 075 kb/s
Width : 640 pixels
Height : 272 pixels
Display aspect ratio : 2.35:1
Frame rate : 23.976 (24000/1001) FPS
Color space : YUV
Chroma subsampling : 4:2:0
Bit depth : 8 bits
Scan type : Progressive
Compression mode : Lossy
Bits/(Pixel*Frame) : 0.258
Stream size : 411 MiB (88%)
Writing library : XviD 64

Audio
ID  : 1
Format : MPEG Audio
Format version : Version 1
Format profile : Layer 3
Codec ID : 55
Codec ID/Hint : MP3
Duration : 53 min 23 s
Bit rate mode : Constant
Bit rate : 128 kb/s
Channel(s) : 2 channels
Sampling rate : 48.0 kHz
Compression mode : Lossy
Stream size : 48.9 MiB (11%)
Alignment : Aligned on interleaves
Interleave, duration : 24 ms (0.58 video frame)

Screenshots:  
 
 
 
 
 
 
Please Seed For As Long As Possible
Or At Least 1:1 Ratio...Thanks
Enjoy Peeps 

Sharing Widget


Download torrent
Size: 464.6 MB
seeders:14
leechers:2
Star.Trek.Discovery.S02E09.WEB-DL.XviD.B4ND1T69 - (487168409 Bytes)



To share this torrent use the code below and insert it into comments, status messages, forum posts or your signature.

Torrent: Star.Trek.Discovery.S02E09.WEB-DL.XviD.B4ND1T69

Trackers

tracker name
udp://tracker.coppersurfer.tk:6969/announce
udp://tracker.leechers-paradise.org:6969/announce
udp://tracker.opentrackr.org:1337/announce
udp://explodie.org:6969/announce
udp://tracker.pirateparty.gr:6969/announce
udp://tracker.internetwarriors.net:1337/announce
udp://tracker.tiny-vps.com:6969/announce
udp://open.demonii.si:1337/announce
udp://tracker.torrent.eu.org:451/announce
udp://tracker.zer0day.to:1337/announce
udp://tracker.leechers-paradise.org:6969/announce
udp://coppersurfer.tk:6969/announce
ĀµTorrent compatible trackers list

Locations

name
KickassTorrents
Torrent hash: 0D8168594EDDA9164669E87665792C3328138A7D
kickass, kickass proxy, kickass movies, kickass torrentz2 download, utorrent kickass movies, kickass torrents2, best torrenting sites, kickass search engine, kickass torrenz movies, kickass movie download fast and free, kickass proxy 2018, kickass top