this is a clone the true one is kickass2.cc | contact kastatus@protonmail.com

Spider-Man Into the Spider-Verse 2018 {Multi Audio} 720p BluRay {...

seeders: 3
leechers: 3
updated:
Added by Simple2018 in Other


Description

Spider-Man Into the Spider-Verse 2018 {Multi Audio} 720p BluRay {Hindi-Eng-Tamil-Telugu Org BD 5.1 448 Kbps} H264 AAC Esub - 2.5 GB


 








 
 
 
 
 
 
 
 
 
 





 




Media Information


IMDB : https://www.imdb.com/title/tt4633694/ 



General


Format                      : Matroska
Format version              : Version 4 / Version 2
File size                   : 2.52 GiB
Duration                    : 1 h 56 min
Overall bit rate            : 3 084 kb/s
Movie name                  : Visit : Filmmaza.org
Encoded date                : UTC 2019-03-15 11:28:20
Writing application         : mkvmerge v20.0.0 ('I Am The Sun') 64-bit
Writing library             : libebml v1.3.5 + libmatroska v1.4.8


Video


ID                          : 1
Format                      : AVC
Format/Info                 : Advanced Video Codec
Format profile              : [email protected] 
Format settings             : CABAC / 4 Ref Frames
Format settings, CABAC      : Yes
Format settings, ReFrames   : 4 frames
Codec ID                    : V_MPEG4/ISO/AVC
Duration                    : 1 h 56 min
Bit rate                    : 1 500 kb/s
Width                       : 1 280 pixels
Height                      : 536 pixels
Display aspect ratio        : 2.40:1
Frame rate mode             : Constant
Frame rate                  : 23.976 (23976/1000) FPS
Color space                 : YUV
Chroma subsampling          : 4:2:0
Bit depth                   : 8 bits
Scan type                   : Progressive
Bits/(Pixel*Frame)          : 0.091
Stream size                 : 1.22 GiB (49%)
Title                       : Filmmaza.org
Writing library             : x264 core 152 r2851M ba24899
Encoding settings           : cabac=1 / ref=4 / deblock=1:-1:-1 / analyse=0x3:0x113 / me=umh / subme=9 / psy=1 / psy_rd=1.00:0.15 / mixed_ref=1 / me_range=24 / chroma_me=1 / trellis=2 / 8x8dct=1 / cqm=0 / deadzone=21,11 / fast_pskip=1 / chroma_qp_offset=-3 / threads=32 / lookahead_threads=4 / sliced_threads=0 / nr=0 / decimate=1 / interlaced=0 / bluray_compat=0 / constrained_intra=0 / bframes=3 / b_pyramid=2 / b_adapt=2 / b_bias=0 / direct=3 / weightb=1 / open_gop=0 / weightp=2 / keyint=250 / keyint_min=25 / scenecut=40 / intra_refresh=0 / rc_lookahead=50 / rc=2pass / mbtree=1 / bitrate=1500 / ratetol=1.0 / qcomp=0.60 / qpmin=0 / qpmax=69 / qpstep=4 / cplxblur=20.0 / qblur=0.5 / vbv_maxrate=31250 / vbv_bufsize=31250 / nal_hrd=none / filler=0 / ip_ratio=1.40 / aq=3:1.00
Language                    : English
Default                     : Yes
Forced                      : Yes


Audio #1


ID                          : 2
Format                      : AC-3
Format/Info                 : Audio Coding 3
Codec ID                    : A_AC3
Duration                    : 1 h 56 min
Bit rate mode               : Constant
Bit rate                    : 448 kb/s
Channel(s)                  : 6 channels
Channel positions           : Front: L C R, Side: L R, LFE
Sampling rate               : 48.0 kHz
Frame rate                  : 31.250 FPS (1536 SPF)
Bit depth                   : 16 bits
Compression mode            : Lossy
Delay relative to video     : -43 ms
Stream size                 : 374 MiB (15%)
Title                       : Filmmaza.org
Language                    : Hindi
Service kind                : Complete Main
Default                     : Yes
Forced                      : Yes


Audio #2


ID                          : 3
Format                      : AAC
Format/Info                 : Advanced Audio Codec
Format profile              : LC
Codec ID                    : A_AAC-2
Duration                    : 1 h 56 min
Bit rate                    : 224 kb/s
Channel(s)                  : 6 channels
Channel positions           : Front: L C R, Side: L R, LFE
Sampling rate               : 48.0 kHz
Frame rate                  : 46.875 FPS (1024 SPF)
Compression mode            : Lossy
Delay relative to video     : -43 ms
Stream size                 : 187 MiB (7%)
Title                       : Filmmaza.org
Language                    : English
Default                     : No
Forced                      : No


Audio #3


ID                          : 4
Format                      : AC-3
Format/Info                 : Audio Coding 3
Codec ID                    : A_AC3
Duration                    : 1 h 56 min
Bit rate mode               : Constant
Bit rate                    : 448 kb/s
Channel(s)                  : 6 channels
Channel positions           : Front: L C R, Side: L R, LFE
Sampling rate               : 48.0 kHz
Frame rate                  : 31.250 FPS (1536 SPF)
Bit depth                   : 16 bits
Compression mode            : Lossy
Delay relative to video     : -43 ms
Stream size                 : 374 MiB (15%)
Title                       : Filmmaza.org
Language                    : Tatar
Service kind                : Complete Main
Default                     : No
Forced                      : No


Audio #4


ID                          : 5
Format                      : AC-3
Format/Info                 : Audio Coding 3
Codec ID                    : A_AC3
Duration                    : 1 h 56 min
Bit rate mode               : Constant
Bit rate                    : 448 kb/s
Channel(s)                  : 6 channels
Channel positions           : Front: L C R, Side: L R, LFE
Sampling rate               : 48.0 kHz
Frame rate                  : 31.250 FPS (1536 SPF)
Bit depth                   : 16 bits
Compression mode            : Lossy
Delay relative to video     : -43 ms
Stream size                 : 374 MiB (15%)
Title                       : Filmmaza.org
Language                    : Telugu
Service kind                : Complete Main
Default                     : No
Forced                      : No


Text #1


ID                          : 6
Format                      : VobSub
Muxing mode                 : zlib
Codec ID                    : S_VOBSUB
Codec ID/Info               : Picture based subtitle format used on DVDs
Duration                    : 1 h 55 min
Bit rate                    : 8 934 b/s
Count of elements           : 1371
Stream size                 : 7.37 MiB (0%)
Title                       : Filmmaza.org
Language                    : English
Default                     : No
Forced                      : No


Text #2


ID                          : 7
Format                      : VobSub
Muxing mode                 : zlib
Codec ID                    : S_VOBSUB
Codec ID/Info               : Picture based subtitle format used on DVDs
Duration                    : 1 h 55 min
Bit rate                    : 12.1 kb/s
Count of elements           : 1854
Stream size                 : 10.0 MiB (0%)
Title                       : Filmmaza.org
Language                    : English
Default                     : No
Forced                      : No


Text #3


ID                          : 8
Format                      : UTF-8
Codec ID                    : S_TEXT/UTF8
Codec ID/Info               : UTF-8 Plain Text
Duration                    : 1 h 18 min
Bit rate                    : 0 b/s
Count of elements           : 7
Stream size                 : 466 Bytes (0%)
Title                       : Filmmaza.org
Default                     : Yes
Forced                      : Yes



 

Sharing Widget


Download torrent
Size: 2.5 GB
seeders:3
leechers:3
Spider-Man Into the Spider-Verse 2018 {Multi Audio} 720p BluRay {... - (2684354560 Bytes)



To share this torrent use the code below and insert it into comments, status messages, forum posts or your signature.

Torrent: Spider-Man Into the Spider-Verse 2018 {Multi Audio} 720p BluRay {...

Trackers

tracker name
udp://tracker.coppersurfer.tk:6969/announce
udp://tracker.open-internet.nl:6969/announce
udp://tracker.leechers-paradise.org:6969/announce
udp://tracker.internetwarriors.net:1337/announce
udp://tracker.opentrackr.org:1337/announce
udp://9.rarbg.to:2710/announce
udp://9.rarbg.me:2710/announce
udp://exodus.desync.com:6969/announce
udp://tracker1.itzmx.com:8080/announce
http://tracker3.itzmx.com:6961/announce
udp://tracker.zer0day.to:1337/announce
udp://tracker.leechers-paradise.org:6969/announce
udp://coppersurfer.tk:6969/announce
ĀµTorrent compatible trackers list

Locations

name
KickassTorrents
Torrent hash: 588E0AA4E98789A4E00B9F25DFC944F57A82FA50
kickass, kickass proxy, kickass movies, kickass torrentz2 download, utorrent kickass movies, kickass torrents2, best torrenting sites, kickass search engine, kickass torrenz movies, kickass movie download fast and free, kickass proxy 2018, kickass top