this is a clone the true one is kickass2.cc | contact kastatus@protonmail.com

Spider-Man Into The Spider-Verse 2018 720p BluRay x264 Eng-Hindi ...

seeders: 10
leechers: 37
updated:
Added by DarkRelease in Other


Description

 

 


Spider-Man Into The Spider-Verse 2018 720p BluRay x264 Eng-Hindi AC3 DD 5.1 [Team SSX]


 


General

Format                                   : Matroska
Format version                           : Version 4
File size                                : 1.34 GiB
Duration                                 : 1 h 56 min
Overall bit rate                         : 1 644 kb/s

Video
ID                                       : 1
Format                                   : AVC
Format/Info                              : Advanced Video Codec
Format profile                           : [email protected] 
Format settings                          : CABAC / 4 Ref Frames
Format settings, CABAC                   : Yes
Format settings, RefFrames               : 4 frames
Codec ID                                 : V_MPEG4/ISO/AVC
Duration                                 : 1 h 56 min
Bit rate                                 : 1 050 kb/s
Width                                    : 1 280 pixels
Height                                   : 534 pixels
Display aspect ratio                     : 2.40:1
Original display aspect ratio            : 2.40:1
Frame rate mode                          : Constant
Frame rate                               : 23.976 (24000/1001) FPS
Color space                              : YUV
Chroma subsampling                       : 4:2:0
Bit depth                                : 8 bits
Scan type                                : Progressive
Bits/(Pixel*Frame)                       : 0.064
Stream size                              : 877 MiB (64%)
Title                                    : Team SSX
Writing library                          : x264 core 157
Default                                  : Yes
Forced                                   : No

Audio #1
ID                                       : 2
Format                                   : AC-3
Format/Info                              : Audio Coding 3
Commercial name                          : Dolby Digital
Codec ID                                 : A_AC3
Duration                                 : 1 h 56 min
Bit rate mode                            : Constant
Bit rate                                 : 448 kb/s
Channel(s)                               : 6 channels
Channel layout                           : L R C LFE Ls Rs
Sampling rate                            : 48.0 kHz
Frame rate                               : 31.250 FPS (1536 SPF)
Bit depth                                : 16 bits
Compression mode                         : Lossy
Delay relative to video                  : -43 ms
Stream size                              : 374 MiB (27%)
Title                                    : Team SSX
Language                                 : Hindi
Service kind                             : Complete Main
Default                                  : Yes
Forced                                   : No

Audio #2
ID                                       : 3
Format                                   : AAC LC
Format/Info                              : Advanced Audio Codec Low Complexity
Codec ID                                 : A_AAC-2
Duration                                 : 1 h 56 min
Bit rate                                 : 144 kb/s
Channel(s)                               : 2 channels
Channel layout                           : L R
Sampling rate                            : 48.0 kHz
Frame rate                               : 46.875 FPS (1024 SPF)
Compression mode                         : Lossy
Delay relative to video                  : -43 ms
Stream size                              : 120 MiB (9%)
Title                                    : Team SSX
Default                                  : No
Forced                                   : No

 
 
 
 



Hindi Audio - Hammer  



 


Sharing Widget


Download torrent
Size: 1.4 GB
seeders:10
leechers:37
Spider-Man Into The Spider-Verse 2018 720p BluRay x264 Eng-Hindi ... - (1503238553 Bytes)



To share this torrent use the code below and insert it into comments, status messages, forum posts or your signature.

Torrent: Spider-Man Into The Spider-Verse 2018 720p BluRay x264 Eng-Hindi ...

Trackers

tracker name
udp://tracker.pirateparty.gr:6969/announce
udp://tracker.tiny-vps.com:6969/announce
udp://open.stealth.si:80/announce
udp://tracker.opentrackr.org:1337/announce
udp://tracker.internetwarriors.net:1337/announce
udp://9.rarbg.to:2710/announce
udp://tracker1.itzmx.com:8080/announce
udp://9.rarbg.me:2740/announce
udp://thetracker.org:80/announce
udp://tracker.coppersurfer.tk:6969/announce
https://tracker.fastdownload.xyz:443/announce
udp://torrentclub.tech:6969/announce
udp://open.demonii.si:1337/announce
https://seeders-paradise.org:443/announce
udp://tracker.zer0day.to:1337/announce
udp://tracker.leechers-paradise.org:6969/announce
udp://coppersurfer.tk:6969/announce
ĀµTorrent compatible trackers list

Locations

name
KickassTorrents
Torrent hash: 486E2706BD4683C0B8A0F8F09D47C488110A31F4
kickass, kickass proxy, kickass movies, kickass torrentz2 download, utorrent kickass movies, kickass torrents2, best torrenting sites, kickass search engine, kickass torrenz movies, kickass movie download fast and free, kickass proxy 2018, kickass top