this is a clone the true one is kickass2.cc | contact kastatus@protonmail.com

Spider.Man.Into.The.Spider.Verse.2018.1080p.Bluray.Multi.Audio.Hi...

seeders: 4
leechers: 12
updated:
Added by abuhamza420 in Other


Description

 

 

Thanks Hammer For Audio  


Spider.Man.Into.The.Spider.Verse.2018.1080p.Bluray.Multi.Audio.Hindi.Tamil.Telugu.English.DD5.1.AAC.x264.MoviesMB  


MoviesMB 
  

Downloadhub.Icu  


Buy PowerFull VPS And RDP From RDPArena.com  

Use Coupon EXTRADESI get 30% Discount on All RDP and VPS Plans
  


 


Video
ID                                       : 1
Format                                   : AVC
Format/Info                              : Advanced Video Codec
Format profile                           : [email protected] 
Format settings                          : CABAC / 5 Ref Frames
Format settings, CABAC                   : Yes
Format settings, RefFrames               : 5 frames
Codec ID                                 : V_MPEG4/ISO/AVC
Duration                                 : 1 h 56 min
Bit rate                                 : 1 592 kb/s
Width                                    : 1 920 pixels
Height                                   : 804 pixels
Display aspect ratio                     : 2.40:1
Frame rate mode                          : Constant
Frame rate                               : 23.976 (24000/1001) FPS
Color space                              : YUV
Chroma subsampling                       : 4:2:0
Bit depth                                : 8 bits
Scan type                                : Progressive
Bits/(Pixel*Frame)                       : 0.043
Stream size                              : 1.30 GiB (76%)
Title                                    : MoviesMB
Writing library                          : x264 core 157 r2935 545de2f
Language                                 : English
Default                                  : Yes
Forced                                   : No
Color range                              : Limited
Color primaries                          : Generic film
Transfer characteristics                 : BT.709
Matrix coefficients                      : BT.709

Audio #1
ID                                       : 2
Format                                   : AAC
Format/Info                              : Advanced Audio Codec
Format profile                           : LC
Codec ID                                 : A_AAC-2
Duration                                 : 1 h 56 min
Bit rate                                 : 128 kb/s
Channel(s)                               : 6 channels
Channel positions                        : Front: L C R, Side: L R, LFE
Sampling rate                            : 48.0 kHz
Frame rate                               : 46.875 FPS (1024 SPF)
Compression mode                         : Lossy
Delay relative to video                  : 9 ms
Stream size                              : 107 MiB (6%)
Title                                    : MoviesMB
Language                                 : English
Default                                  : Yes
Forced                                   : No

Audio #2
ID                                       : 3
Format                                   : AAC
Format/Info                              : Advanced Audio Codec
Format profile                           : LC
Codec ID                                 : A_AAC-2
Duration                                 : 1 h 56 min
Bit rate                                 : 128 kb/s
Channel(s)                               : 6 channels
Channel positions                        : Front: L C R, Side: L R, LFE
Sampling rate                            : 48.0 kHz
Frame rate                               : 46.875 FPS (1024 SPF)
Compression mode                         : Lossy
Delay relative to video                  : 9 ms
Stream size                              : 107 MiB (6%)
Title                                    : MoviesMB
Language                                 : Hindi
Default                                  : No
Forced                                   : No

Audio #3
ID                                       : 4
Format                                   : AAC
Format/Info                              : Advanced Audio Codec
Format profile                           : LC
Codec ID                                 : A_AAC-2
Duration                                 : 1 h 56 min
Bit rate                                 : 128 kb/s
Channel(s)                               : 6 channels
Channel positions                        : Front: L C R, Side: L R, LFE
Sampling rate                            : 48.0 kHz
Frame rate                               : 46.875 FPS (1024 SPF)
Compression mode                         : Lossy
Delay relative to video                  : 9 ms
Stream size                              : 107 MiB (6%)
Title                                    : MoviesMB
Language                                 : Tamil
Default                                  : No
Forced                                   : No

Audio #4
ID                                       : 5
Format                                   : AAC
Format/Info                              : Advanced Audio Codec
Format profile                           : LC
Codec ID                                 : A_AAC-2
Duration                                 : 1 h 56 min
Bit rate                                 : 128 kb/s
Channel(s)                               : 6 channels
Channel positions                        : Front: L C R, Side: L R, LFE
Sampling rate                            : 48.0 kHz
Frame rate                               : 46.875 FPS (1024 SPF)
Compression mode                         : Lossy
Delay relative to video                  : 9 ms
Stream size                              : 107 MiB (6%)
Title                                    : MoviesMB
Language                                 : Telugu
Default                                  : No
Forced                                   : No

Text
ID                                       : 6
Format                                   : UTF-8
Codec ID                                 : S_TEXT/UTF8
Codec ID/Info                            : UTF-8 Plain Text
Duration                                 : 1 h 55 min
Bit rate                                 : 55 b/s
Count of elements                        : 1540
Stream size                              : 46.9 KiB (0%)
Title                                    : MoviesMB
Language                                 : English
Default                                  : Yes
Forced                                   : No




          


 

Sharing Widget


Download torrent
Size: 1.7 GB
seeders:4
leechers:12
Spider.Man.Into.The.Spider.Verse.2018.1080p.Bluray.Multi.Audio.Hi... - (1825361100 Bytes)



To share this torrent use the code below and insert it into comments, status messages, forum posts or your signature.

Torrent: Spider.Man.Into.The.Spider.Verse.2018.1080p.Bluray.Multi.Audio.Hi...

Trackers

tracker name
UDP://TRACKER.LEECHERS-PARADISE.ORG:6969/ANNOUNCE
UDP://TRACKER.COPPERSURFER.TK:6969/ANNOUNCE
UDP://TRACKER.OPENTRACKR.ORG:1337/ANNOUNCE
udp://9.rarbg.to:2710/announce
UDP://EDDIE4.NL:6969/ANNOUNCE
udp://inferno.demonoid.pw:3391/announce
udp://tracker.zer0day.to:1337/announce
udp://tracker.leechers-paradise.org:6969/announce
udp://coppersurfer.tk:6969/announce
ĀµTorrent compatible trackers list

Locations

name
KickassTorrents
Torrent hash: 309A75732B36DF9293743DD2555D6C9A664E3F39
kickass, kickass proxy, kickass movies, kickass torrentz2 download, utorrent kickass movies, kickass torrents2, best torrenting sites, kickass search engine, kickass torrenz movies, kickass movie download fast and free, kickass proxy 2018, kickass top