this is a clone the true one is kickass2.cc | contact kastatus@protonmail.com

Shinedown 2012 - 2018

seeders: 1
leechers: 1
updated:
Added by KATJohnRambo in Other


Shinedown 2012 - 2018 Size: 303.9 MB (318662246 Bytes)

Description

 



--------------------------------------------------------------------------------
Analyzed: Shinedown / Amaryllis
--------------------------------------------------------------------------------

DR         Peak         RMS     Duration Track
--------------------------------------------------------------------------------
DR11      -6.35 dB   -18.79 dB      3:26 01-Adrenaline
DR11      -6.42 dB   -19.17 dB      3:58 02-Bully
DR11      -6.40 dB   -19.78 dB      4:02 03-Amaryllis
DR10      -6.41 dB   -19.02 dB      4:11 04-Unity
DR11      -6.38 dB   -19.21 dB      3:06 05-Enemies
DR11      -6.35 dB   -19.61 dB      3:04 06-I'm Not Alright
DR11      -6.43 dB   -19.18 dB      3:11 07-Nowhere Kids
DR11      -6.41 dB   -19.03 dB      3:34 08-Miracle
DR11      -6.51 dB   -20.38 dB      3:56 09-I'll Follow You
DR11      -6.45 dB   -18.97 dB      3:44 10-For My Sake
DR11      -6.37 dB   -19.26 dB      3:33 11-My Name (Wearing Me Out)
DR11      -7.40 dB   -21.55 dB      3:56 12-Through The Ghost
--------------------------------------------------------------------------------

Number of tracks:  12
Official DR value: DR11

Samplerate:        48000 Hz
Channels:          2
Bitrate:           320 kbps
Codec:             MP3
================================================================================



 



--------------------------------------------------------------------------------
Analyzed: Shinedown / Threat To Survival
--------------------------------------------------------------------------------

DR         Peak         RMS     Duration Track
--------------------------------------------------------------------------------
DR9       -6.57 dB   -18.49 dB      3:27 01-Asking For It
DR10      -6.31 dB   -18.73 dB      3:40 02-Cut The Cord
DR10      -7.00 dB   -19.89 dB      3:23 03-State Of My Head
DR8       -7.49 dB   -19.13 dB      3:23 04-Outcast
DR9       -7.07 dB   -19.36 dB      3:04 05-How Did You Love
DR10      -6.35 dB   -19.34 dB      3:50 06-It All Adds Up
DR9       -6.91 dB   -18.77 dB      3:54 07-Oblivion
DR9       -7.67 dB   -18.85 dB      3:47 08-Dangerous
DR10      -6.91 dB   -19.27 dB      3:52 09-Thick As Thieves
DR8       -7.47 dB   -18.68 dB      3:23 10-Black Cadillac
DR9       -7.39 dB   -20.44 dB      4:00 11-Misfits
--------------------------------------------------------------------------------

Number of tracks:  11
Official DR value: DR9

Samplerate:        48000 Hz
Channels:          2
Bitrate:           320 kbps
Codec:             MP3
================================================================================



 



--------------------------------------------------------------------------------
Analyzed: Shinedown / Attention Attention 
--------------------------------------------------------------------------------

DR         Peak         RMS     Duration Track
--------------------------------------------------------------------------------
DR22      -8.25 dB   -35.36 dB      0:38 01-The Entrance
DR10      -6.89 dB   -19.73 dB      3:24 02-Devil
DR11      -6.82 dB   -20.66 dB      3:19 03-Black Soul
DR11      -7.51 dB   -20.62 dB      3:46 04-Attention Attention
DR11      -6.29 dB   -20.60 dB      3:48 05-Kill Your Conscience
DR10      -7.44 dB   -19.83 dB      3:45 06-Pyro
DR11      -7.25 dB   -21.26 dB      4:03 07-Monsters
DR11      -7.17 dB   -19.91 dB      3:48 08-Darkside
DR11      -7.46 dB   -20.97 dB      3:51 09-Creatures
DR11      -6.82 dB   -19.28 dB      2:51 10-Evolve
DR11      -7.30 dB   -22.12 dB      4:00 11-Get Up
DR11      -8.17 dB   -22.98 dB      3:41 12-Special
DR11      -6.37 dB   -20.80 dB      4:03 13-Human Radio
DR11      -6.98 dB   -21.07 dB      4:22 14-Brilliant
--------------------------------------------------------------------------------

Number of tracks:  14
Official DR value: DR12

Samplerate:        48000 Hz
Channels:          2
Bitrate:           320 kbps
Codec:             MP3
================================================================================

Please Continue To Seed For Others :-)








Sharing Widget


Download torrent
Size: 303.9 MB
seeders:1
leechers:1
Shinedown 2012 - 2018 - (318662246 Bytes)



To share this torrent use the code below and insert it into comments, status messages, forum posts or your signature.

Torrent: Shinedown 2012 - 2018

Trackers

tracker name
udp://tracker.leechers-paradise.org:6969/announce
udp://tracker.zer0day.to:1337/announce
udp://tracker.leechers-paradise.org:6969/announce
udp://coppersurfer.tk:6969/announce
ĀµTorrent compatible trackers list

Locations

name
KickassTorrents
Torrent hash: 34A105EFCA78644A6C63A6A596BA895F9D7A349A
kickass, kickass proxy, kickass movies, kickass torrentz2 download, utorrent kickass movies, kickass torrents2, best torrenting sites, kickass search engine, kickass torrenz movies, kickass movie download fast and free, kickass proxy 2018, kickass top