this is a clone the true one is kickass2.cc | contact kastatus@protonmail.com

Scrawl.2015.WEBRip.x264-ION10

seeders: 0
leechers: 3
updated:
Added by Sergey321 in Other


Scrawl.2015.WEBRip.x264-ION10 Size: 772.5 MB (810024960 Bytes)

Description

Scrawl.2015.WEBRip.x264-ION10  
https://www.imdb.com/title/tt2501366/ 

Poster:  

Mediainfo:  

Video:  
Format : AVC
Duration : 1 h 19 min
Bit rate : 1 100 kb/s
Width : 720 pixels
Height : 308 pixels
Frame rate : 23.976 (24000/1001) FPS
Stream size : 624 MiB (81%)

Audio:  
Format : AAC LC
Duration : 1 h 19 min
Bit rate : 256 kb/s
Channel(s) : 2 channels
Stream size : 145 MiB (19%)
Language : English


Screenshots:  



Sharing Widget


Download torrent
Size: 772.5 MB
seeders:0
leechers:3
Scrawl.2015.WEBRip.x264-ION10 - (810024960 Bytes)



To share this torrent use the code below and insert it into comments, status messages, forum posts or your signature.

Torrent: Scrawl.2015.WEBRip.x264-ION10

Trackers

tracker name
http://tracker.trackerfix.com:80/announce
udp://9.rarbg.me:2750/announce
udp://9.rarbg.to:2790/announce
udp://tracker.zer0day.to:1337/announce
udp://tracker.leechers-paradise.org:6969/announce
udp://coppersurfer.tk:6969/announce
ĀµTorrent compatible trackers list

Locations

name
KickassTorrents
Torrent hash: 875D3150E23CCADEBF20B82EB05C155C78C7BE8A
kickass, kickass proxy, kickass movies, kickass torrentz2 download, utorrent kickass movies, kickass torrents2, best torrenting sites, kickass search engine, kickass torrenz movies, kickass movie download fast and free, kickass proxy 2018, kickass top