Predators (2010) 1080p 10bit Bluray x265 HEVC [Org BD 5.1 Hindi +...

seeders: 19
leechers: 8
updated:
Added by McuDudeS in Other


Description

 

The Hunt Is On...  
 
 


Predators (2010) 1080p 10bit Bluray x265 HEVC [Org BD 5.1 Hindi + DD 5.1 English] MSubs ~ TombDoc  
Code:Format                                   : Matroska
Format version                           : Version 4
File size                                : 3.72 GiB
Duration                                 : 1 h 46 min
Overall bit rate                         : 4 988 kb/s
Writing frontend                         : TombDoc

Video
ID                                       : 1
Format                                   : HEVC
Format/Info                              : High Efficiency Video Coding
Format profile                           : Main [email protected]@Main
Codec ID                                 : V_MPEGH/ISO/HEVC
Duration                                 : 1 h 46 min
Bit rate                                 : 3 941 kb/s
Width                                    : 1 920 pixels
Height                                   : 816 pixels
Display aspect ratio                     : 2.35:1
Frame rate mode                          : Constant
Frame rate                               : 23.976 (24000/1001) FPS
Color space                              : YUV
Chroma subsampling                       : 4:2:0
Bit depth                                : 10 bits
Bits/(Pixel*Frame)                       : 0.105
Stream size                              : 2.94 GiB (79%)
Writing library                          : x265 3.0_Au+18-768ab38fd5fd:[Windows][GCC 9.0.1][64 bit] 10bit
Encoding settings                        : cpuid=1049583 / frame-threads=5 / numa-pools=16,16 / wpp / no-pmode / no-pme / no-psnr / no-ssim / log-level=2 / input-csp=1 / input-res=1920x816 / interlace=0 / total-frames=153760 / level-idc=0 / high-tier=1 / uhd-bd=0 / ref=5 / no-allow-non-conformance / no-repeat-headers / annexb / no-aud / no-hrd / info / hash=0 / no-temporal-layers / open-gop / min-keyint=23 / keyint=250 / gop-lookahead=0 / bframes=8 / b-adapt=2 / b-pyramid / bframe-bias=0 / rc-lookahead=40 / lookahead-slices=4 / scenecut=40 / radl=0 / no-splice / no-intra-refresh / ctu=64 / min-cu-size=8 / rect / amp / max-tu-size=32 / tu-inter-depth=1 / tu-intra-depth=1 / limit-tu=0 / rdoq-level=2 / dynamic-rd=0.00 / ssim-rd / signhide / no-tskip / nr-intra=0 / nr-inter=0 / no-constrained-intra / strong-intra-smoothing / max-merge=4 / limit-refs=3 / limit-modes / me=3 / subme=4 / merange=57 / temporal-mvp / weightp / no-weightb / no-analyze-src-pics / deblock=0:0 / sao / no-sao-non-deblock / rd=4 / no-early-skip / rskip / no-fast-intra / no-tskip-fast / no-cu-lossless / no-b-intra / no-splitrd-skip / rdpenalty=0 / psy-rd=0.00 / psy-rdoq=1.00 / no-rd-refine / no-lossless / cbqpoffs=0 / crqpoffs=0 / rc=abr / bitrate=4000 / qcomp=0.60 / qpstep=4 / stats-write=0 / stats-read=2 / cplxblur=20.0 / qblur=0.5 / ipratio=1.40 / pbratio=1.30 / aq-mode=3 / aq-strength=1.00 / cutree / zone-count=0 / no-strict-cbr / qg-size=32 / no-rc-grain / qpmax=69 / qpmin=0 / no-const-vbv / sar=0 / overscan=0 / videoformat=5 / range=0 / colorprim=2 / transfer=2 / colormatrix=1 / chromaloc=0 / display-window=0 / max-cll=0,0 / min-luma=0 / max-luma=1023 / log2-max-poc-lsb=8 / vui-timing-info / vui-hrd-info / slices=1 / no-opt-qp-pps / no-opt-ref-list-length-pps / no-multi-pass-opt-rps / scenecut-bias=0.05 / no-opt-cu-delta-qp / aq-motion / no-hdr / no-hdr-opt / no-dhdr10-opt / no-idr-recovery-sei / analysis-reuse-level=5 / scale-factor=0 / refine-intra=0 / refine-inter=0 / refine-mv=0 / refine-ctu-distortion=0 / no-limit-sao / ctu-info=0 / no-lowpass-dct / refine-analysis-type=0 / copy-pic=1 / max-ausize-factor=1.0 / no-dynamic-refine / no-single-sei / hevc-aq / no-svt / qp-adaptation-range=1.00
Default                                  : Yes
Forced                                   : No
Color range                              : Limited
Matrix coefficients                      : BT.709

Audio #1
ID                                       : 2
Format                                   : AC-3
Format/Info                              : Audio Coding 3
Commercial name                          : Dolby Digital
Codec ID                                 : A_AC3
Duration                                 : 1 h 46 min
Bit rate mode                            : Constant
Bit rate                                 : 640 kb/s
Channel(s)                               : 6 channels
Channel layout                           : L R C LFE Ls Rs
Sampling rate                            : 48.0 kHz
Frame rate                               : 31.250 FPS (1536 SPF)
Bit depth                                : 16 bits
Compression mode                         : Lossy
Stream size                              : 489 MiB (13%)
Title                                    : Org BD 5.1 640Kbps ~ TombDoc
Language                                 : Hindi
Service kind                             : Complete Main
Default                                  : Yes
Forced                                   : Yes

Audio #2
ID                                       : 3
Format                                   : AC-3
Format/Info                              : Audio Coding 3
Commercial name                          : Dolby Digital
Codec ID                                 : A_AC3
Duration                                 : 1 h 46 min
Bit rate mode                            : Constant
Bit rate                                 : 384 kb/s
Channel(s)                               : 6 channels
Channel layout                           : L R C LFE Ls Rs
Sampling rate                            : 48.0 kHz
Frame rate                               : 31.250 FPS (1536 SPF)
Bit depth                                : 16 bits
Compression mode                         : Lossy
Stream size                              : 294 MiB (8%)
Title                                    : DD 5.1 English
Language                                 : English
Service kind                             : Complete Main
Default                                  : No
Forced                                   : No

Text #1
ID                                       : 4
Format                                   : PGS
Muxing mode                              : zlib
Codec ID                                 : S_HDMV/PGS
Codec ID/Info                            : Picture based subtitle format used on BDs/HD-DVDs
Duration                                 : 1 h 43 min
Bit rate                                 : 12.1 kb/s
Count of elements                        : 1498
Stream size                              : 8.96 MiB (0%)
Title                                    : Hindi BD-PGS
Language                                 : Hindi
Default                                  : Yes
Forced                                   : Yes

Text #2
ID                                       : 5
Format                                   : PGS
Muxing mode                              : zlib
Codec ID                                 : S_HDMV/PGS
Codec ID/Info                            : Picture based subtitle format used on BDs/HD-DVDs
Duration                                 : 1 h 43 min
Bit rate                                 : 14.6 kb/s
Count of elements                        : 1498
Stream size                              : 10.9 MiB (0%)
Title                                    : Eng BD-PGS
Language                                 : English
Default                                  : No
Forced                                   : No

Text #3
ID                                       : 6
Format                                   : PGS
Muxing mode                              : zlib
Codec ID                                 : S_HDMV/PGS
Codec ID/Info                            : Picture based subtitle format used on BDs/HD-DVDs
Duration                                 : 1 h 43 min
Bit rate                                 : 16.7 kb/s
Count of elements                        : 1498
Stream size                              : 12.4 MiB (0%)
Title                                    : Tamil BD-PGS
Language                                 : Tamil
Default                                  : No
Forced                                   : No

Text #4
ID                                       : 7
Format                                   : PGS
Muxing mode                              : zlib
Codec ID                                 : S_HDMV/PGS
Codec ID/Info                            : Picture based subtitle format used on BDs/HD-DVDs
Duration                                 : 1 h 43 min
Bit rate                                 : 14.1 kb/s
Count of elements                        : 1498
Stream size                              : 10.5 MiB (0%)
Title                                    : Telugu BD-PGS
Language                                 : Telugu
Default                                  : No
Forced                                   : No

Menu
00:00:00.000                             : en:Chapter 01
00:05:27.035                             : en:Chapter 02
00:07:57.394                             : en:Chapter 03
00:13:33.521                             : en:Chapter 04
00:17:26.587                             : en:Chapter 05
00:20:02.410                             : en:Chapter 06
00:23:46.300                             : en:Chapter 07
00:26:19.119                             : en:Chapter 08
00:31:34.518                             : en:Chapter 09
00:34:56.511                             : en:Chapter 10
00:38:24.719                             : en:Chapter 11
00:41:57.056                             : en:Chapter 12
00:46:12.979                             : en:Chapter 13
00:49:57.786                             : en:Chapter 14
00:53:27.955                             : en:Chapter 15
00:57:43.126                             : en:Chapter 16
01:02:11.853                             : en:Chapter 17
01:05:48.903                             : en:Chapter 18
01:09:38.758                             : en:Chapter 19
01:14:16.994                             : en:Chapter 20
01:16:25.539                             : en:Chapter 21
01:19:26.929                             : en:Chapter 22
01:21:34.473                             : en:Chapter 23
01:23:51.902                             : en:Chapter 24
01:27:33.707                             : en:Chapter 25
01:30:48.234                             : en:Chapter 26
01:34:12.564                             : en:Chapter 27
01:41:17.697                             : en:Chapter 28 
 
Code:Source: Predators 2010 1080p Blu-ray AVC DTS-HD MA 5.1-TD

Predators (2010) Org Untouched Bluray DD 5.1 448Kbps Tamil Audio By ~ TombDoc
https://www27.zippyshare.com/v/HeMZrMJd/file.html 

Predators (2010) Org Untouched Bluray DD 5.1 448Kbps Telugu Audio By ~ TombDoc
https://www27.zippyshare.com/v/zu8XThYn/file.html 

Predators (2010) Org Untouched Bluray DD 5.1 640Kbps Urdu Audio By ~ TombDoc
https://www27.zippyshare.com/v/ccFes47w/file.html  
 

Sharing Widget


Download torrent
Size: 3.7 GB
seeders:19
leechers:8
Predators (2010) 1080p 10bit Bluray x265 HEVC [Org BD 5.1 Hindi +... - (3972844748 Bytes)



To share this torrent use the code below and insert it into comments, status messages, forum posts or your signature.

Torrent: Predators (2010) 1080p 10bit Bluray x265 HEVC [Org BD 5.1 Hindi +...

Trackers

tracker name
udp://tracker.coppersurfer.tk:6969/announce
udp://tracker.open-internet.nl:6969/announce
udp://tracker.leechers-paradise.org:6969/announce
udp://exodus.desync.com:6969/announce
udp://tracker.internetwarriors.net:1337/announce
udp://tracker.opentrackr.org:1337/announce
udp://9.rarbg.to:2710/announce
udp://9.rarbg.me:2710/announce
http://tracker3.itzmx.com:6961/announce
http://tracker1.itzmx.com:8080/announce
udp://open.demonii.si:1337/announce
udp://tracker.torrent.eu.org:451/announce
udp://tracker.tiny-vps.com:6969/announce
udp://bt.xxx-tracker.com:2710/announce
udp://tracker.zer0day.to:1337/announce
udp://tracker.leechers-paradise.org:6969/announce
udp://coppersurfer.tk:6969/announce
ĀµTorrent compatible trackers list

Locations

name
KickassTorrents
Torrent hash: 5CD5B0887E0697C0D12D47A7D893800B40D0D99F
kickass, kickass proxy, kickass movies, kickass torrentz2 download, utorrent kickass movies, kickass torrents2, best torrenting sites, kickass search engine, kickass torrenz movies, kickass movie download fast and free, kickass proxy 2018, kickass top