this is a clone the true one is kickass2.cc | contact kastatus@protonmail.com

Petta (2019) HDRip Hindi (Cleaned) 720p 1.1GB

seeders: 287
leechers: 136
updated:
Added by worldfree1 in Other


Petta (2019) HDRip Hindi (Cleaned) 720p 1.1GB Size: 1.2 GB (1288490188 Bytes)

Description

 

 
 
 
 
 
 
 
 
 
 
 

Quote:Format : Matroska
Format version : Version 4
File size : 1.16 GiB
Duration : 2 h 46 min
Overall bit rate : 994 kb/s
Encoded date : UTC 2019-02-23 05:42:07 / UTC 
Writing application : mkvmerge v28.1.0 ('Morning Child') 64-bit
Writing library : libebml v1.3.6 + libmatroska v1.4.9 / Lavf55.12.0

Video
ID : 1
Format : AVC
Format/Info : Advanced Video Codec
Format profile : [email protected] 
Format settings : CABAC / 8 Ref Frames
Format settings, CABAC : Yes
Format settings, RefFrames : 8 frames
Codec ID : V_MPEG4/ISO/AVC
Duration : 2 h 46 min
Bit rate : 900 kb/s
Width : 1 280 pixels
Height : 546 pixels
Display aspect ratio : 2.35:1
Frame rate mode : Constant
Frame rate : 24.000 FPS
Color space : YUV
Chroma subsampling : 4:2:0
Bit depth : 8 bits
Scan type : Progressive
Bits/(Pixel*Frame) : 0.054
Stream size : 1.04 GiB (90%)
Writing library : x264 core 142 r2479 dd79a61
Default : Yes
Forced : No
Color range : Limited
Color primaries : BT.709
Transfer characteristics : BT.709
Matrix coefficients : BT.709

Audio
ID : 2
Format : AAC LC SBR
Format/Info : Advanced Audio Codec Low Complexity with Spectral Band Replication
Commercial name : HE-AAC
Format settings : NBC
Codec ID : A_AAC-5
Duration : 2 h 46 min
Bit rate : 96.0 kb/s
Channel(s) : 2 channels
Channel layout : L R
Sampling rate : 22.05 kHz
Frame rate : 10.767 FPS (2048 SPF)
Compression mode : Lossy
Delay relative to video : -229 ms
Stream size : 114 MiB (10%)
Default : Yes
Forced : No 


Sharing Widget


Download torrent
Size: 1.2 GB
seeders:287
leechers:136
Petta (2019) HDRip Hindi (Cleaned) 720p 1.1GB - (1288490188 Bytes)



To share this torrent use the code below and insert it into comments, status messages, forum posts or your signature.

Torrent: Petta (2019) HDRip Hindi (Cleaned) 720p 1.1GB

Trackers

tracker name
udp://tracker.openbittorrent.com:80/announce
udp://tracker.opentrackr.org:1337/announce
udp://tracker.openbittorrent.com:80/announce
udp://tracker.opentrackr.org:1337/announce
http://ipv4.tracker.harry.lu:80/announce
http://163.172.180.68:80/announce
http://t.nyaatracker.com/announce
http://tracker.devil-torrents.pl:80/announce
http://tracker.devil-torrents.pl/announce
http://open.kickasstracker.com/announce
http://163.172.180.68/announce
http://t.nyaatracker.com:80/announce
http://retracker.mgts.by:80/announce
http://45.33.11.224/announce
udp://tracker.zer0day.to:1337/announce
udp://tracker.leechers-paradise.org:6969/announce
udp://coppersurfer.tk:6969/announce
ĀµTorrent compatible trackers list

Locations

name
KickassTorrents
Torrent hash: DF8C632D9CA258D1F7C94D8A9EDAE06D57BB22C3
kickass, kickass proxy, kickass movies, kickass torrentz2 download, utorrent kickass movies, kickass torrents2, best torrenting sites, kickass search engine, kickass torrenz movies, kickass movie download fast and free, kickass proxy 2018, kickass top