this is a clone the true one is kickass2.cc | contact kastatus@protonmail.com

Long.Day's.Journey.Into.Night.2018.WEB-DL.AVC.AAC-HQC

seeders: 3
leechers: 1
updated:
Added by m1337e in Other


Description

Release: Long.Day's.Journey.Into.Night.2018.WEB-DL.AVC.AAC-HQC  

 

IMDB:  https://www.imdb.com/title/tt8185182/ 

Subtitle: English/Mandarin (Hardcoded)

Plot: Luo Hongwu returns to Kaili, the hometown from which he fled 12 years earlier. As memories of an enigmatic and beautiful woman resurface - a woman he loved and whom he has never been able to forget - Luo Hongwu begins his search for her. Past and present, reality and dream interweave in Bi Gan's stunningly beautiful and highly innovative film noir.  

Complete name: Long.Day's.Journey.Into.Night.2018.WEB-DL.AVC.AAC-HQC
Format : MPEG-4
Format profile : Base Media
Codec ID : isom (isom/iso2/avc1/mp41/letv)
File size : 3.03 GiB
Duration : 2 h 18 min
Overall bit rate : 3 140 kb/s
Movie name : PontusSystem
Writing application : Lavf56.15.102

Video
ID : 1
Format : AVC
Format/Info : Advanced Video Codec
Format profile : [email protected] 
Format settings : CABAC / 4 Ref Frames
Format settings, CABAC : Yes
Format settings, ReFrames : 4 frames
Codec ID : avc1
Codec ID/Info : Advanced Video Coding
Duration : 2 h 18 min
Bit rate : 3 000 kb/s
Width : 1 920 pixels
Height : 1 040 pixels
Display aspect ratio : 1.85:1
Frame rate mode : Constant
Frame rate : 24.000 FPS
Color space : YUV
Chroma subsampling : 4:2:0
Bit depth : 8 bits
Scan type : Progressive
Bits/(Pixel*Frame) : 0.063
Stream size : 2.89 GiB (96%)
Writing library : Provided by www.letv.com :: H.264/MPEG-4 AVC codec -V 1.6.08

Audio
ID : 2
Format : AAC
Format/Info : Advanced Audio Codec
Format profile : LC
Codec ID : mp4a-40-2
Duration : 2 h 18 min
Duration_LastFrame : -4 ms
Bit rate mode : Constant
Bit rate : 128 kb/s
Channel(s) : 2 channels
Channel positions : Front: L R
Sampling rate : 44.1 kHz
Frame rate : 43.066 FPS (1024 SPF)
Compression mode : Lossy
Stream size : 126 MiB (4%)
Default : Yes
Alternate group : 1
  

SCREENSHOTS:  
 
 
 

Sharing Widget


Download torrent
Size: 3.0 GB
seeders:3
leechers:1
Long.Day's.Journey.Into.Night.2018.WEB-DL.AVC.AAC-HQC - (3221225472 Bytes)



To share this torrent use the code below and insert it into comments, status messages, forum posts or your signature.

Torrent: Long.Day's.Journey.Into.Night.2018.WEB-DL.AVC.AAC-HQC

Trackers

tracker name
udp://tracker.opentrackr.org:1337/announce
udp://tracker.coppersurfer.tk:6969/announce
udp://tracker.leechers-paradise.org:6969/announce
udp://tracker.zer0day.to:1337/announce
udp://tracker.zer0day.to:1337/announce
udp://tracker.leechers-paradise.org:6969/announce
udp://coppersurfer.tk:6969/announce
ĀµTorrent compatible trackers list

Locations

name
KickassTorrents
Torrent hash: 3BD49677D64FEE29449230A5E1072C8CC17190D0
kickass, kickass proxy, kickass movies, kickass torrentz2 download, utorrent kickass movies, kickass torrents2, best torrenting sites, kickass search engine, kickass torrenz movies, kickass movie download fast and free, kickass proxy 2018, kickass top