this is a clone the true one is kickass2.cc | contact kastatus@protonmail.com

Leprechaun.Returns.2019.DVDRip.x264-WiDE

seeders: 1
leechers: 1
updated:
Added by Sergey321 in Other


Leprechaun.Returns.2019.DVDRip.x264-WiDE Size: 642.7 MB (673919795 Bytes)

Description

Leprechaun.Returns.2019.DVDRip.x264-WiDE  
https://www.imdb.com/title/tt8155182/ 

Poster:  

Mediainfo:  

Video:  
Format : AVC
Duration : 1 h 32 min
Bit rate : 790 kb/s
Width : 720 pixels
Height : 406 pixels
Frame rate : 23.976 (24000/1001) FPS
Stream size : 525 MiB (83%)

Audio:  
Format : AAC LC
Duration : 1 h 32 min
Bit rate : 156 kb/s
Channel(s) : 2 channels
Stream size : 103 MiB (16%)
Language : English


Screenshots:  

 

Sharing Widget


Download torrent
Size: 642.7 MB
seeders:1
leechers:1
Leprechaun.Returns.2019.DVDRip.x264-WiDE - (673919795 Bytes)



To share this torrent use the code below and insert it into comments, status messages, forum posts or your signature.

Torrent: Leprechaun.Returns.2019.DVDRip.x264-WiDE

Trackers

tracker name
http://tracker.trackerfix.com:80/announce
udp://9.rarbg.me:2740/announce
udp://9.rarbg.to:2780/announce
udp://tracker.zer0day.to:1337/announce
udp://tracker.leechers-paradise.org:6969/announce
udp://coppersurfer.tk:6969/announce
ĀµTorrent compatible trackers list

Locations

name
KickassTorrents
Torrent hash: 5A92A40F0CA421F87AB8E9C5F51C2DE452FD7735
kickass, kickass proxy, kickass movies, kickass torrentz2 download, utorrent kickass movies, kickass torrents2, best torrenting sites, kickass search engine, kickass torrenz movies, kickass movie download fast and free, kickass proxy 2018, kickass top