this is a clone the true one is kickass2.cc | contact kastatus@protonmail.com

Indiana Jones And The Last Crusade 1989 {Dual Audio} 1080p BluRay...

seeders: 15
leechers: 6
updated:
Added by Simple2018 in Other


Description

 
 

 
Indiana Jones And The Last Crusade 1989

{Dual Audio} 

1080p BluRay 

[ English - Hindi DDP 5.1 640 Kbps ] H264 AAC - 2.98 GB

 


Thanks To "The Punisher" For Hindi Audio 



 




 
 
 
 
 
 
 
 
 
 
 
 
 
 
 





 




Media Information


IMDB : https://www.imdb.com/title/tt0097576/ 




General



Complete name                            : Indiana Jones and the Last Crusade (1989)\Indiana Jones And The Last Crusade 1989 {Dual Audio} 1080p BluRay [ English - Hindi DDP 5.1 640 Kbps ] H264 AAC - 2.98 GB.mkv
Format                                   : Matroska
Format version                           : Version 4
File size                                : 2.98 GiB
Duration                                 : 2 h 6 min
Overall bit rate                         : 3 366 kb/s
Movie name                               : Visit : Filmmaza.org
Encoded date                             : UTC 2019-05-14 11:52:42
Writing application                      : mkvmerge v20.0.0 ('I Am The Sun') 64-bit
Writing library                          : libebml v1.3.5 + libmatroska v1.4.8


Video


ID                                       : 1
Format                                   : AVC
Format/Info                              : Advanced Video Codec
Format profile                           : [email protected] 
Format settings                          : CABAC / 4 Ref Frames
Format settings, CABAC                   : Yes
Format settings, RefFrames               : 4 frames
Codec ID                                 : V_MPEG4/ISO/AVC
Duration                                 : 2 h 6 min
Bit rate                                 : 2 500 kb/s
Width                                    : 1 920 pixels
Height                                   : 816 pixels
Display aspect ratio                     : 2.35:1
Frame rate mode                          : Constant
Frame rate                               : 23.976 (23976/1000) FPS
Color space                              : YUV
Chroma subsampling                       : 4:2:0
Bit depth                                : 8 bits
Scan type                                : Progressive
Bits/(Pixel*Frame)                       : 0.067
Stream size                              : 2.22 GiB (74%)
Title                                    : Filmmaza.org
Writing library                          : x264 core 152 r2851M ba24899
Encoding settings                        : cabac=1 / ref=4 / deblock=1:-1:-1 / analyse=0x3:0x113 / me=umh / subme=9 / psy=1 / psy_rd=1.00:0.15 / mixed_ref=1 / me_range=24 / chroma_me=1 / trellis=2 / 8x8dct=1 / cqm=0 / deadzone=21,11 / fast_pskip=1 / chroma_qp_offset=-3 / threads=32 / lookahead_threads=4 / sliced_threads=0 / nr=0 / decimate=1 / interlaced=0 / bluray_compat=0 / constrained_intra=0 / bframes=3 / b_pyramid=2 / b_adapt=2 / b_bias=0 / direct=3 / weightb=1 / open_gop=0 / weightp=2 / keyint=250 / keyint_min=25 / scenecut=40 / intra_refresh=0 / rc_lookahead=50 / rc=2pass / mbtree=1 / bitrate=2500 / ratetol=1.0 / qcomp=0.60 / qpmin=0 / qpmax=69 / qpstep=4 / cplxblur=20.0 / qblur=0.5 / vbv_maxrate=31250 / vbv_bufsize=31250 / nal_hrd=none / filler=0 / ip_ratio=1.40 / aq=3:1.00
Language                                 : English
Default                                  : Yes
Forced                                   : Yes


Audio #1


ID                                       : 2
Format                                   : E-AC-3
Format/Info                              : Enhanced AC-3
Commercial name                          : Dolby Digital Plus
Codec ID                                 : A_EAC3
Duration                                 : 2 h 6 min
Bit rate mode                            : Constant
Bit rate                                 : 640 kb/s
Channel(s)                               : 6 channels
Channel layout                           : L R C LFE Ls Rs
Sampling rate                            : 48.0 kHz
Frame rate                               : 31.250 FPS (1536 SPF)
Compression mode                         : Lossy
Delay relative to video                  : -43 ms
Stream size                              : 581 MiB (19%)
Title                                    : Filmmaza.org
Language                                 : Hindi
Service kind                             : Complete Main
Default                                  : Yes
Forced                                   : Yes


Audio #2


ID                                       : 3
Format                                   : AAC LC
Format/Info                              : Advanced Audio Codec Low Complexity
Codec ID                                 : A_AAC-2
Duration                                 : 2 h 6 min
Bit rate                                 : 224 kb/s
Channel(s)                               : 6 channels
Channel layout                           : C L R Ls Rs LFE
Sampling rate                            : 48.0 kHz
Frame rate                               : 46.875 FPS (1024 SPF)
Compression mode                         : Lossy
Delay relative to video                  : -43 ms
Stream size                              : 203 MiB (7%)
Title                                    : Filmmaza.org
Language                                 : English
Default                                  : No
Forced                                   : No  

 

Sharing Widget


Download torrent
Size: 3.0 GB
seeders:15
leechers:6
Indiana Jones And The Last Crusade 1989 {Dual Audio} 1080p BluRay... - (3221225472 Bytes)



To share this torrent use the code below and insert it into comments, status messages, forum posts or your signature.

Torrent: Indiana Jones And The Last Crusade 1989 {Dual Audio} 1080p BluRay...

Trackers

tracker name
udp://tracker.coppersurfer.tk:6969/announce
udp://tracker.internetwarriors.net:1337/announce
udp://tracker.opentrackr.org:1337/announce
udp://9.rarbg.to:2710/announce
udp://exodus.desync.com:6969/announce
udp://explodie.org:6969/announce
http://tracker2.itzmx.com:6961/announce
http://tracker1.itzmx.com:8080/announce
udp://ipv4.tracker.harry.lu:80/announce
udp://denis.stalker.upeer.me:6969/announce
udp://tracker.zer0day.to:1337/announce
udp://tracker.leechers-paradise.org:6969/announce
udp://coppersurfer.tk:6969/announce
ĀµTorrent compatible trackers list

Locations

name
KickassTorrents
Torrent hash: 233CD62E9D69241583FE2AB9E9FF114D7D8DB34F
kickass, kickass proxy, kickass movies, kickass torrentz2 download, utorrent kickass movies, kickass torrents2, best torrenting sites, kickass search engine, kickass torrenz movies, kickass movie download fast and free, kickass proxy 2018, kickass top