this is a clone the true one is kickass2.cc | contact kastatus@protonmail.com

Impractical Jokers S07E04 Stripteased x 810 (1080p) x264 Phun Psy...

seeders: 14
leechers: 1
updated:
Added by PhunPsyz in Other


Description

www.imdb.com/title/tt8098424/?ref_=ttep_ep5 

The jokers must do as they are told while pretending to be dentists, then try not to laugh as they go head to head in the food court. The loser suffers a revealing punishment.

Source: ViSUM (iTunes)

 
 
 
 
 

Format : MPEG-4
Format profile : Base Media / Version 2
Codec ID : mp42 (isom/iso2/avc1/mp41)
File size : 328 MiB
Duration : 24 min 44 s
Overall bit rate mode : Variable
Overall bit rate : 1 852 kb/s
Writing application : HandBrake 1.2.0 2018121700

Video
ID : 1
Format : AVC
Format/Info : Advanced Video Codec
Format profile : [email protected] 
Format settings : CABAC / 1 Ref Frames
Format settings, CABAC : Yes
Format settings, ReFrames : 1 frame
Codec ID : avc1
Codec ID/Info : Advanced Video Coding
Duration : 24 min 44 s
Bit rate : 1 686 kb/s
Width : 1 440 pixels
Height : 810 pixels
Display aspect ratio : 16:9
Frame rate mode : Constant
Frame rate : 29.970 (30000/1001) FPS
Color space : YUV
Chroma subsampling : 4:2:0
Bit depth : 8 bits
Scan type : Progressive
Bits/(Pixel*Frame) : 0.048
Stream size : 298 MiB (91%)
Writing library : x264 core 157 r2935 545de2f

Audio
ID : 2
Format : AAC LC
Format/Info : Advanced Audio Codec Low Complexity
Codec ID : mp4a-40-2
Duration : 24 min 44 s
Bit rate mode : Constant
Bit rate : 160 kb/s
Channel(s) : 2 channels
Channel layout : L R
Sampling rate : 48.0 kHz
Frame rate : 46.875 FPS (1024 SPF)
Compression mode : Lossy
Stream size : 28.2 MiB (9%)
Title : Stereo
Language : English

Text
Language : English
Default : Yes
Forced : No

Sharing Widget


Download torrent
Size: 327.7 MB
seeders:14
leechers:1
Impractical Jokers S07E04 Stripteased x 810 (1080p) x264 Phun Psy... - (343618355 Bytes)



To share this torrent use the code below and insert it into comments, status messages, forum posts or your signature.

Torrent: Impractical Jokers S07E04 Stripteased x 810 (1080p) x264 Phun Psy...

Trackers

tracker name
udp://tracker.opentrackr.org:1337/announce
udp://tracker.coppersurfer.tk:6969/announce
udp://thetracker.org:80/announce
udp://tracker.pirateparty.gr:6969/announce
udp://tracker.internetwarriors.net:1337/announce
udp://tracker.torrent.eu.org:451/announce
udp://tracker.tiny-vps.com:6969/announce
udp://explodie.org:6969/announce
http://explodie.org:6969/announce
udp://open.stealth.si:80/announce
udp://open.demonii.si:1337/announce
udp://tracker.uw0.xyz:6969/announce
udp://ipv4.tracker.harry.lu:80/announce
udp://denis.stalker.upeer.me:6969/announce
udp://tracker.zer0day.to:1337/announce
udp://tracker.leechers-paradise.org:6969/announce
udp://coppersurfer.tk:6969/announce
ĀµTorrent compatible trackers list

Locations

name
KickassTorrents
Torrent hash: D2F4CA564B82D289D318B8C803813D39244C8079
kickass, kickass proxy, kickass movies, kickass torrentz2 download, utorrent kickass movies, kickass torrents2, best torrenting sites, kickass search engine, kickass torrenz movies, kickass movie download fast and free, kickass proxy 2018, kickass top