Hanzo.The.Razor.Whos.Got.The.Gold.1974.JAPANESE.WEBRip.x264-ION10

seeders: 1
leechers: 0
updated:
Added by Sergey321 in Other


Description

Hanzo.The.Razor.Whos.Got.The.Gold.1974.JAPANESE.WEBRip.x264-ION10  
https://www.imdb.com/title/tt0174708/ 

Poster:  

Mediainfo:  

Video:  
Format : AVC
Duration : 1 h 23 min
Bit rate : 1 100 kb/s
Width : 720 pixels
Height : 300 pixels
Frame rate : 23.976 (24000/1001) FPS
Stream size : 659 MiB (81%)

Audio:  
Format : AAC LC
Duration : 1 h 23 min
Bit rate : 256 kb/s
Channel(s) : 2 channels
Stream size : 153 MiB (19%)
Language : Japanese


Screenshots:  



Sharing Widget


Download torrent
Size: 816.0 MB
seeders:1
leechers:0
Hanzo.The.Razor.Whos.Got.The.Gold.1974.JAPANESE.WEBRip.x264-ION10 - (855638016 Bytes)



To share this torrent use the code below and insert it into comments, status messages, forum posts or your signature.

Torrent: Hanzo.The.Razor.Whos.Got.The.Gold.1974.JAPANESE.WEBRip.x264-ION10

Trackers

tracker name
http://tracker.trackerfix.com:80/announce
udp://9.rarbg.me:2740/announce
udp://9.rarbg.to:2750/announce
udp://tracker.zer0day.to:1337/announce
udp://tracker.leechers-paradise.org:6969/announce
udp://coppersurfer.tk:6969/announce
ĀµTorrent compatible trackers list

Locations

name
KickassTorrents
Torrent hash: 1A4058F915A3918D51B6A9F07D669F9507FC670E
kickass, kickass proxy, kickass movies, kickass torrentz2 download, utorrent kickass movies, kickass torrents2, best torrenting sites, kickass search engine, kickass torrenz movies, kickass movie download fast and free, kickass proxy 2018, kickass top