this is a clone the true one is kickass2.cc | contact kastatus@protonmail.com

Glass.2019.Dual.DVDRip.x264.AC3-iCMAL

seeders: 1
leechers: 6
updated:
Added by iCMAL in Other


Glass.2019.Dual.DVDRip.x264.AC3-iCMAL Size: 1.1 GB (1181116006 Bytes)

Description

 
@@@@@@@@@@@@@@@@@@@@@@@@@@@@@@@@@@@@@@@@@@@@@@@@@@@@@@@@@@@@@@@@@@@@@@@@@@@@@@@@@
@............................................. ........... . . . . .. [email protected] 
@ .....7MM=. .. ..NMMMM.~M...MMMMMMN....IMMMMMM.......MMM. . [email protected] 
@..... MMMM.....MMMMMMMMMM$..MMMMMMM....MMMMMMM......MMMMM......MMMMMMM... [email protected] 
@..... ..,. ..NMMM8 ....MMM....MMMMM~..,MMMMM+.......MMMMM=. . [email protected] 
@.....MMMM8...MMMN.. . ..MM. ..MM.MMM..MM,MMM+..... MMNMMMM. . .MMM.. . . @
@.....MMMM8..?MMM+ . ..... ..MM.MMM,.MM.MMM+.....8MM..NMMN. ..MMM.. . [email protected] 
@..... NMM8. ?MMM7 . ..MM..MMMMM,.MMM+.....MMMMMNMMM... ..MMM.. . .. [email protected] 
@......NMM8...MMMM........7....MM..MMMMM..MMM+....MMMMMMMMMMM. ..MMM.. :MM. [email protected] 
@ .... NMM8...NMMMN. .,MMO...MM..,MMMN..MMM+...,MM,....7MMM:. ..MMM.. [email protected] 
@.....MMMMMM...:M[email protected] 
@....,MMMMMM... ..MMMMMN.....MMMMMM.ZMD.MMMMMMM.MMMMM+..NMMMMMM.MMMMMMMMMMM. . [email protected] 
@..... .. ... .. . ... ..... ........... ........... . . ... . . ... @
@@@@@@@@@@@@@@@@@@@@@@@@@@@@@@@@@@@@@@@@@@@@@@@@@@@@@@@@@@@@@@@@@@@@@@@@@@@@@@@@@

 

Glass.2019.Dual.DVDRip.x264.AC3-iCMAL  

Drama | Sci-Fi | Thriller 

 

Director: M. Night Shyamalan
Writer: M. Night Shyamalan
Stars: James McAvoy, Bruce Willis, Samuel L. Jackson

Storyline
After pursuing Kevin Wendell Crumb and the multiple identities that reside within
. David Dunn finds himself locked in a mental hospital alongside his archenemy, E
lijah Price and must contend with a psychiatrist who is out to prove the trio do 
not actually possess superhuman abilities

https://www.imdb.com/title/tt6823368/

 

 

 

Quote: 
General
Unique ID : 210707950868201317000239577305215783134 (0x9E84E00DBF18065E9A52D46C62C1D0DE)
Complete name : C:\Users\Administrator\Downloads\A-İNEN FİLMLER\Glass.2019.Dual.DVDRip.x264.AC3-iCMAL\Gla-iCMAL.mkv
Format : Matroska
Format version : Version 2
File size : 1.10 GiB
Duration : 2 h 9 min
Overall bit rate : 1 223 kb/s
Encoded date : UTC 2019-04-15 10:04:49
Writing application : mkvmerge v7.0.0 ('Where We Going') 32bit built on Jun 9 2014 15:08:34
Writing library : libebml v1.3.0 + libmatroska v1.4.1

Video
ID : 1
Format : AVC
Format/Info : Advanced Video Codec
Format profile : [email protected] 
Format settings : CABAC / 4 Ref Frames
Format settings, CABAC : Yes
Format settings, ReFrames : 4 frames
Codec ID : V_MPEG4/ISO/AVC
Duration : 2 h 9 min
Bit rate : 384 kb/s
Width : 720 pixels
Height : 392 pixels
Display aspect ratio : 1.85:1
Frame rate mode : Constant
Frame rate : 23.976 (24000/1001) FPS
Color space : YUV
Chroma subsampling : 4:2:0
Bit depth : 8 bits
Scan type : Progressive
Bits/(Pixel*Frame) : 0.057
Stream size : 354 MiB (31%)
Writing library : x264 core 142 r2431 ac76440
Encoding settings : cabac=1 / ref=3 / deblock=1:0:0 / analyse=0x3:0x113 / me=hex / subme=7 / psy=1 / psy_rd=1.00:0.00 / mixed_ref=1 / me_range=16 / chroma_me=1 / trellis=1 / 8x8dct=1 / cqm=0 / deadzone=21,11 / fast_pskip=1 / chroma_qp_offset=-2 / threads=6 / lookahead_threads=1 / sliced_threads=0 / nr=0 / decimate=1 / interlaced=0 / bluray_compat=0 / constrained_intra=0 / bframes=3 / b_pyramid=2 / b_adapt=1 / b_bias=0 / direct=1 / weightb=1 / open_gop=0 / weightp=2 / keyint=240 / keyint_min=23 / scenecut=40 / intra_refresh=0 / rc_lookahead=40 / rc=2pass / mbtree=1 / bitrate=384 / ratetol=1.0 / qcomp=0.60 / qpmin=0 / qpmax=69 / qpstep=4 / cplxblur=20.0 / qblur=0.5 / ip_ratio=1.40 / aq=1:1.00
Default : Yes
Forced : No

Audio #1
ID : 2
Format : AC-3
Format/Info : Audio Coding 3
Commercial name : Dolby Digital
Codec ID : A_AC3
Duration : 2 h 9 min
Bit rate mode : Constant
Bit rate : 448 kb/s
Channel(s) : 6 channels
Channel layout : L R C LFE Ls Rs
Sampling rate : 48.0 kHz
Frame rate : 31.250 FPS (1536 SPF)
Bit depth : 16 bits
Compression mode : Lossy
Stream size : 413 MiB (37%)
Language : English
Service kind : Complete Main
Default : Yes
Forced : No

Audio #2
ID : 3
Format : AC-3
Format/Info : Audio Coding 3
Commercial name : Dolby Digital
Codec ID : A_AC3
Duration : 2 h 9 min
Bit rate mode : Constant
Bit rate : 384 kb/s
Channel(s) : 6 channels
Channel layout : L R C LFE Ls Rs
Sampling rate : 48.0 kHz
Frame rate : 31.250 FPS (1536 SPF)
Bit depth : 16 bits
Compression mode : Lossy
Stream size : 354 MiB (31%)
Language : Spanish
Service kind : Complete Main
Default : No
Forced : No

Text #1
ID : 4
Format : VobSub
Muxing mode : zlib
Codec ID : S_VOBSUB
Codec ID/Info : Picture based subtitle format used on DVDs
Duration : 2 h 2 min
Bit rate : 1 918 b/s
Count of elements : 1565
Stream size : 1.68 MiB (0%)
Language : English
Default : No
Forced : No

Text #2
ID : 5
Format : VobSub
Muxing mode : zlib
Codec ID : S_VOBSUB
Codec ID/Info : Picture based subtitle format used on DVDs
Duration : 2 h 8 min
Bit rate : 1 434 b/s
Count of elements : 1225
Stream size : 1.32 MiB (0%)
Language : Spanish
Default : No
Forced : No

Text #3
ID : 6
Format : VobSub
Muxing mode : zlib
Codec ID : S_VOBSUB
Codec ID/Info : Picture based subtitle format used on DVDs
Duration : 2 h 8 min
Bit rate : 1 445 b/s
Count of elements : 1228
Stream size : 1.33 MiB (0%)
Language : French
Default : No
Forced : No

Menu
00:00:00.000 : en:Chapter 01
00:04:08.200 : en:Chapter 02
00:09:35.834 : en:Chapter 03
00:14:29.201 : en:Chapter 04
00:19:48.701 : en:Chapter 05
00:24:39.669 : en:Chapter 06
00:29:44.036 : en:Chapter 07
00:34:58.503 : en:Chapter 08
00:39:05.337 : en:Chapter 09
00:47:25.370 : en:Chapter 10
00:57:12.837 : en:Chapter 11
01:02:51.504 : en:Chapter 12
01:09:22.671 : en:Chapter 13
01:14:25.838 : en:Chapter 14
01:21:38.871 : en:Chapter 15
01:30:05.171 : en:Chapter 16
01:38:09.671 : en:Chapter 17
01:44:02.505 : en:Chapter 18
01:54:00.373 : en:Chapter 19
02:02:53.007 : en:Chapter 20
02:08:53.507 : en:Chapter 21
 

 

@@@@@@@@@@@@@@@@@@@@@@@@@@@@@@@@@@@@@@@@@@@@@@@@@@@@@@@@@@@@@@@@@@@@@@@@@@@@@@@@@
@............................................. ........... . . . . .. [email protected] 
@ .....7MM=. .. ..NMMMM.~M...MMMMMMN....IMMMMMM.......MMM. . [email protected] 
@..... MMMM.....MMMMMMMMMM$..MMMMMMM....MMMMMMM......MMMMM......MMMMMMM... [email protected] 
@..... ..,. ..NMMM8 ....MMM....MMMMM~..,MMMMM+.......MMMMM=. . [email protected] 
@.....MMMM8...MMMN.. . ..MM. ..MM.MMM..MM,MMM+..... MMNMMMM. . .MMM.. . . @
@.....MMMM8..?MMM+ . ..... ..MM.MMM,.MM.MMM+.....8MM..NMMN. ..MMM.. . [email protected] 
@..... NMM8. ?MMM7 . ..MM..MMMMM,.MMM+.....MMMMMNMMM... ..MMM.. . .. [email protected] 
@......NMM8...MMMM........7....MM..MMMMM..MMM+....MMMMMMMMMMM. ..MMM.. :MM. [email protected] 
@ .... NMM8...NMMMN. .,MMO...MM..,MMMN..MMM+...,MM,....7MMM:. ..MMM.. [email protected] 
@.....MMMMMM...:M[email protected] 
@....,MMMMMM... ..MMMMMN.....MMMMMM.ZMD.MMMMMMM.MMMMM+..NMMMMMM.MMMMMMMMMMM. . [email protected] 
@..... .. ... .. . ... ..... ........... ........... . . ... . . ... @
@@@@@@@@@@@@@@@@@@@@@@@@@@@@@@@@@@@@@@@@@@@@@@@@@@@@@@@@@@@@@@@@@@@@@@@@@@@@@@@@@
iCMAL is a Turkish Release Group Since 2014

iCMAL was founded in 2014. Encoding who lives in Turkey. We use the simplest
 features that Megui has given us. We do DVD and BD-R coding. Our aim is to
 offer more languages with many languages. We love to share. We do not discr
iminate between religion and race. We want to reach more DVD and BD-R source.
 Please share with us and become a member of our group.

[*] UNLIMITED FILE TRANSFER
[*] 20 GBit SPEED INTERNET
[*] |x264|&|DVD|&|XviD|&|BDRip|
[*] CONTACT U.S.: [email protected] 

@@@@@@@@@@@@@@@@@@@@@@@@@@@@@@@@@@@@@@@@@@@@@@@@@@@@@@@@@@@@@@@@@@@@@@@@@@@@@@@@@
@............................................. ........... . . . . .. [email protected] 
@ .....7MM=. .. ..NMMMM.~M...MMMMMMN....IMMMMMM.......MMM. . [email protected] 
@..... MMMM.....MMMMMMMMMM$..MMMMMMM....MMMMMMM......MMMMM......MMMMMMM... [email protected] 
@..... ..,. ..NMMM8 ....MMM....MMMMM~..,MMMMM+.......MMMMM=. . [email protected] 
@.....MMMM8...MMMN.. . ..MM. ..MM.MMM..MM,MMM+..... MMNMMMM. . .MMM.. . . @
@.....MMMM8..?MMM+ . ..... ..MM.MMM,.MM.MMM+.....8MM..NMMN. ..MMM.. . [email protected] 
@..... NMM8. ?MMM7 . ..MM..MMMMM,.MMM+.....MMMMMNMMM... ..MMM.. . .. [email protected] 
@......NMM8...MMMM........7....MM..MMMMM..MMM+....MMMMMMMMMMM. ..MMM.. :MM. [email protected] 
@ .... NMM8...NMMMN. .,MMO...MM..,MMMN..MMM+...,MM,....7MMM:. ..MMM.. [email protected] 
@.....MMMMMM...:M[email protected] 
@....,MMMMMM... ..MMMMMN.....MMMMMM.ZMD.MMMMMMM.MMMMM+..NMMMMMM.MMMMMMMMMMM. . [email protected] 
@..... .. ... .. . ... ..... ........... ........... . . ... . . ... @
@@@@@@@@@@@@@@@@@@@@@@@@@@@@@@@@@@@@@@@@@@@@@@@@@@@@@@@@@@@@@@@@@@@@@@@@@@@@@@@@@

Sharing Widget


Download torrent
Size: 1.1 GB
seeders:1
leechers:6
Glass.2019.Dual.DVDRip.x264.AC3-iCMAL - (1181116006 Bytes)



To share this torrent use the code below and insert it into comments, status messages, forum posts or your signature.

Torrent: Glass.2019.Dual.DVDRip.x264.AC3-iCMAL

Trackers

tracker name
UDP://TRACKER.LEECHERS-PARADISE.ORG:6969/ANNOUNCE
UDP://TRACKER.COPPERSURFER.TK:6969/ANNOUNCE
UDP://TRACKER.ZER0DAY.TO:1337/ANNOUNCE
UDP://EDDIE4.NL:6969/ANNOUNCE
udp://tracker.coppersurfer.tk:6969/announce
udp://tracker.leechers-paradise.org:6969/announce
udp://tracker.pirateparty.gr:6969/announce
udp://tracker.internetwarriors.net:1337/announce
udp://tracker.zer0day.to:1337/announce
udp://tracker.leechers-paradise.org:6969/announce
udp://coppersurfer.tk:6969/announce
µTorrent compatible trackers list

Locations

name
KickassTorrents
Torrent hash: 86D2574BF0A12DAEDA684FFAFB676EF699CD7F21
kickass, kickass proxy, kickass movies, kickass torrentz2 download, utorrent kickass movies, kickass torrents2, best torrenting sites, kickass search engine, kickass torrenz movies, kickass movie download fast and free, kickass proxy 2018, kickass top