Dil Diyan Gallan (2019) Punjabi HD-TVRip x264 AAC by MoviesOutNow

seeders: 79
leechers: 14
updated:
Added by shmasti in Other


Description

 

General
Complete name : Dil Diyan Gallan (2019) Punjabi HD-TVRip x264 AAC by MoviesOutNow.mkv
Format : Matroska
Format version : Version 4 / Version 2
File size : 395 MiB
Duration : 1 h 57 min
Overall bit rate : 471 kb/s
Movie name : Dil Diyan Gallan (2019)
Encoded date : UTC 2019-07-01 10:30:09
Writing application : mkvmerge v8.0.0 ('Til The Day That I Die') 32bit
Writing library : libebml v1.3.1 + libmatroska v1.4.2

Video
ID : 1
Format : AVC
Format/Info : Advanced Video Codec
Format profile : [email protected] 
Format settings, CABAC : Yes
Format settings, RefFrames : 4 frames
Codec ID : V_MPEG4/ISO/AVC
Duration : 1 h 57 min
Bit rate : 412 kb/s
Width : 720 pixels
Height : 304 pixels
Display aspect ratio : 2.35:1
Frame rate mode : Constant
Frame rate : 25.000 FPS
Color space : YUV
Chroma subsampling : 4:2:0
Bit depth : 8 bits
Scan type : Progressive
Bits/(Pixel*Frame) : 0.075
Stream size : 347 MiB (88%)
Writing library : x264 core 157
Default : Yes
Forced : No

Audio
ID : 2
Format : AAC
Format/Info : Advanced Audio Codec
Format profile : LC
Codec ID : A_AAC
Duration : 1 h 57 min
Bit rate : 56.0 kb/s
Channel(s) : 1 channel
Channel positions : Front: C
Sampling rate : 44.1 kHz
Frame rate : 43.066 FPS (1024 SPF)
Compression mode : Lossy
Delay relative to video : -24 ms
Stream size : 47.0 MiB (12%)
Language : Panjabi
Default : Yes
Forced : No

Screen Shoot  

Sharing Widget


Download torrent
Size: 395.4 MB
seeders:79
leechers:14
Dil Diyan Gallan (2019) Punjabi HD-TVRip x264 AAC by MoviesOutNow - (414606950 Bytes)



To share this torrent use the code below and insert it into comments, status messages, forum posts or your signature.

Torrent: Dil Diyan Gallan (2019) Punjabi HD-TVRip x264 AAC by MoviesOutNow

Trackers

tracker name
udp://tracker.coppersurfer.tk:6969/announce
udp://tracker.internetwarriors.net:1337/announce
udp://tracker.leechers-paradise.org:6969/announce
udp://tracker.pirateparty.gr:6969/announce
udp://open.demonii.si:1337/announce
udp://tracker.iamhansen.xyz:2000/announce
udp://tracker.openbittorrent.com:80/announce
udp://9.rarbg.to:2710/announce
udp://denis.stalker.upeer.me:6969/announce
udp://tracker.torrent.eu.org:451/announce
udp://ipv4.tracker.harry.lu:80/announce
udp://tracker.opentrackr.org:1337/announce
udp://exodus.desync.com:6969/announce
udp://explodie.org:6969/announce
udp://tracker.zer0day.to:1337/announce
udp://tracker.leechers-paradise.org:6969/announce
udp://coppersurfer.tk:6969/announce
ĀµTorrent compatible trackers list

Locations

name
KickassTorrents
Torrent hash: D9B12613FB71A2344BAA48271C757B923C22A05C
kickass, kickass proxy, kickass movies, kickass torrentz2 download, utorrent kickass movies, kickass torrents2, best torrenting sites, kickass search engine, kickass torrenz movies, kickass movie download fast and free, kickass proxy 2018, kickass top