this is a clone the true one is kickass2.cc | contact kastatus@protonmail.com

Australia - Earth's Magical Kingdom S01E01 (1280x720p HD, 50fps, ...

seeders: 5
leechers: 1
updated:
Added by ElsonRoa in Other


Description

Australia Earth's Magical Kingdom S01E01 (1280x720p HD, 50fps, soft Eng subs) 

Asked to imagine Australia's wilderness many people immediately picture its arid outback, but its landscapes are in fact surprisingly varied. Traveling from the peaks of the aptly-named Snowy Mountains - touched by Antarctic winds - to tropical Queensland we discover how animals have learned to thrive across the continent's harsh and beautiful extremes. 

We meet an echidna, a curious creature related to the only other monotreme on the planet, the platypus, that has the rare ability to lower its body temperature to endure icy winters. The Dryandra Woodlands south of Perth provide the last stronghold for a native marsupial that once ranged all across Australia. The charming numbat, now reduced to less than a thousand individuals in the wild, survives on a diet of termites on the forest floor. 

Elsewhere, where animals have been able to remain in their forest habitat, tree kangaroos can be found climbing along branches in the forest canopy alongside palm cockatoos, whose intelligence is comparable to that of dolphins. The male palm cockatoo, or 'palmie', breaks off sticks and uses them to beat out rhythmic messages to his partner. Bird intelligence is taken to even greater heights, however, by the black kite. Gathering burning sticks and embers from bush fires, it drops them into dry grass to spread a curtain of flame that flushes out insects and small prey. Only in Australia have these remarkable phenomena been witnessed.

First broadcast: 15 March 2019
Duration: 1 hour

Torrent dead? Request reseed at 1337x.to or torrentgalaxy.org - or ask at elsonroa at tutanota.com

 

Media info:-
General
Format : MPEG-4
Format profile : Base Media
Codec ID : isom (isom/iso2/avc1/mp41)
File size : 2.19 GiB
Duration : 58mn 49s
Overall bit rate : 5 329 Kbps
Writing application : Lavf57.83.100

Video
ID : 1
Format : AVC
Format/Info : Advanced Video Codec
Format profile : [email protected] 
Format settings, CABAC : Yes
Format settings, ReFrames : 4 frames
Codec ID : avc1
Codec ID/Info : Advanced Video Coding
Duration : 58mn 49s
Bit rate : 5 004 Kbps
Width : 1 280 pixels
Height : 720 pixels
Display aspect ratio : 16:9
Frame rate mode : Constant
Frame rate : 50.000 fps
Color space : YUV
Chroma subsampling : 4:2:0
Bit depth : 8 bits
Scan type : Progressive
Bits/(Pixel*Frame) : 0.109
Stream size : 2.06 GiB (94%)
Encoded date : UTC 1904-01-01 00:00:00
Tagged date : UTC 1904-01-01 00:00:00
Color range : Limited
Color primaries : BT.709
Transfer characteristics : BT.709
Matrix coefficients : BT.709

Audio
ID : 2
Format : AAC
Format/Info : Advanced Audio Codec
Format profile : LC
Codec ID : 40
Duration : 58mn 49s
Bit rate mode : Constant
Bit rate : 317 Kbps
Channel(s) : 2 channels
Channel positions : Front: L R
Sampling rate : 48.0 KHz
Frame rate : 46.875 fps (1024 spf)
Compression mode : Lossy
Stream size : 134 MiB (6%)
Language : English


Sharing Widget


Download torrent
Size: 2.2 GB
seeders:5
leechers:1
Australia - Earth's Magical Kingdom S01E01 (1280x720p HD, 50fps, ... - (2362232012 Bytes)



To share this torrent use the code below and insert it into comments, status messages, forum posts or your signature.

Torrent: Australia - Earth's Magical Kingdom S01E01 (1280x720p HD, 50fps, ...

Trackers

tracker name
udp://tracker.coppersurfer.tk:6969/announce
udp://tracker.uw0.xyz:6969/announce
udp://tracker.internetwarriors.net:1337/announce
udp://open.stealth.si:80/announce
udp://explodie.org:6969/announce
udp://exodus.desync.com:6969
udp://tracker.tiny-vps.com:6969/announce
udp://tracker.zer0day.to:1337/announce
udp://tracker.leechers-paradise.org:6969/announce
udp://coppersurfer.tk:6969/announce
ĀµTorrent compatible trackers list

Locations

name
KickassTorrents
Torrent hash: 54AF0B3211A71AAAD207EC62B62E7683AA7F96A9
kickass, kickass proxy, kickass movies, kickass torrentz2 download, utorrent kickass movies, kickass torrents2, best torrenting sites, kickass search engine, kickass torrenz movies, kickass movie download fast and free, kickass proxy 2018, kickass top