QI XL_P S16E15 Past Times. revittony

seeders: 5
leechers: 9
updated:
Added by revittony1 in TV
Torrent reliable.
Torrent verified.


QI XL_P S16E15 Past Times. revittony Size: 552.13 MB (578950266 Bytes)

Description

www.imdb.com/title/tt0380136


Format : MPEG-4 
Format profile : Base Media 
Codec ID : isom (isom/iso2/avc1/mp41) 
Overall bit rate mode : Variable 
Overall bit rate : 1 701 kb/s 


Video 
ID : 1 
Format : AVC 
Format/Info : Advanced Video Codec 
Format profile : [email protected] 
Format settings : CABAC / 4 Ref Frames 
Format settings, CABAC : Yes 
Format settings, RefFrames : 4 frames 
Format settings, GOP : M=8, N=96 
Codec ID : avc1 
Codec ID/Info : Advanced Video Coding 
Duration : 44 min 14 s 
Bit rate : 1 603 kb/s 
Width : 960 pixels 
Height : 540 pixels 
Display aspect ratio : 16:9 
Frame rate mode : Constant 
Frame rate : 25.000 FPS 
Color space : YUV 
Chroma subsampling : 4:2:0 
Bit depth : 8 bits 
Scan type : Progressive 
Bits/(Pixel*Frame) : 0.124 
Stream size : 507 MiB (94%) 
Color range : Limited 
Color primaries : BT.709 
Transfer characteristics : BT.709 
Matrix coefficients : BT.709 
Codec configuration box : avcC 

Audio 
ID : 2 
Format : AAC LC SBR 
Format/Info : Advanced Audio Codec Low Complexity with Spectral Band Replication 
Commercial name : HE-AAC 
Format settings : Implicit 
Codec ID : mp4a-40-2 
Duration : 44 min 14 s 
Bit rate mode : Variable 
Bit rate : 96.0 kb/s 
Channel(s) : 2 channels 
Channel layout : L R 
Sampling rate : 48.0 kHz 
Frame rate : 23.438 FPS (2048 SPF) 
Compression mode : Lossy 
Stream size : 30.0 MiB (6%) 
Language : English 
Default : Yes 
Alternate group : 1
        
        

Sharing Widget


Download torrent
Size: 552.13 MB
seeders:5
leechers:9
QI XL_P S16E15 Past Times. revittony - (578950266 Bytes)



To share this torrent use the code below and insert it into comments, status messages, forum posts or your signature.

Torrent: QI XL_P S16E15 Past Times. revittony

Trackers

tracker name
udp://tracker.leechers-paradise.org:6969
udp://tracker.openbittorrent.com:80
udp://open.demonii.com:1337
udp://tracker.coppersurfer.tk:6969
udp://exodus.desync.com:6969
ĀµTorrent compatible trackers list

Locations

name
KickassTorrents
Torrent hash: 3602BC4C027A67E4EFC3F0656268B5D059447FD7
kickass, kickass proxy, kickass movies, kickass torrentz2 download, utorrent kickass movies, kickass torrents2, best torrenting sites, kickass search engine, kickass torrenz movies, kickass movie download fast and free, kickass proxy 2018, kickass top